Скачать через торрент XXII ЗОИ 2014. Фигурное катание. Танцы. Все выступления Фильм бесплатно в хорошем качестве torrent

Скачивайте на UnionPeer.org фильмы через торрент без регистрации. Новинки кино в хорошем качестве через торрент. На UnionPeer.org можно скачать через торрент фильмы 2014 и 2015 годов. Самые новые фильмы.

Скачать торрент XXII ЗОИ 2014. Фигурное катание. Танцы. Все выступления бесплатно через .torrent фильм мультфильм сериал

Если у вас наблюдаются проблемы со скриншотами, переходом по ссылками, скачиванием торрентов - проблемы в блокировщике рекламы AdBlock. #хорошегоДня!


Статистика раздачи
Размер:  32.7 GB   |    Зарегистрирован:  3 года 7 месяцев   |    .torrent скачан:  26 раз   |   
Раздают:  1  
   
Загрузка...
 
Автор Сообщение

Galfimbul

avatar Galfimbul


XXII Зимние Олимпийские игры. Фигурное катание
Танцевальные пары. Все танцы


Вид спорта: фигурное катание
Дата/Год выпуска: 16.02.2014-17.02.2014
Автор рипа/записи: собственная запись

Язык комментариев: русский (Алексей Васильев, Петр Чернышев)

Описание: Олимпийские соревнования по фигурному катанию среди танцевальных пар. Обязательный и произвольный танцы.
Арена Айсберг, Сочи, 2014

Доп. информация: Запись с каналов РОССИЯ HD и СПОРТ 1 HD (HTB+). Запись не пережата, в контейнере mkv записаны оригинальные потоки. Вырезаны рекламные блоки.
В перерывах на заливку льда интервью с российскими фигуристами.
Произвольный танец вещался со второй разминки!

Качество: HDTV 1080i
Формат видео: MKV
Видео: mpeg4 AVC, 1920x1080, interlaced, interlaced, 50.00 fps, 16:9, YUV, VBR ~13 Mbps
Аудио: mpeg2, stereo, 48 kHz, 192 kbps, rus
General
Unique ID : 216153709423595455904364382034585641386 (0xA29DB0AE1FDAD6FCA86649CB3882E1AA)
Complete name : F:\Temp\Figure Skating Single Dance\2014.OlympicWinterGames.IceDance.ShortDance.RussiaHD.1080i.mkv
Format : Matroska
Format version : Version 4 / Version 2
File size : 18.5 GiB
Duration : 3h 24mn
Overall bit rate : 12.9 Mbps
Movie name : 2014 Olympic Winter Games Figure Skating Dance ShortDance
Encoded date : UTC 2014-02-19 20:32:43
Writing application : mkvmerge v6.5.0 ('Isn't she lovely') built on Oct 20 2013 12:50:05
Writing library : libebml v1.3.0 + libmatroska v1.4.1
Original source form : TV
DATE_BROADCASTED : 2014-02-16 20:50:00
TVCHANNEL : Россия HD

Video
ID : 1
Format : AVC
Format/Info : Advanced Video Codec
Format profile : High@L4.0
Format settings, CABAC : Yes
Format settings, ReFrames : 3 frames
Format settings, GOP : M=4, N=28
Codec ID : V_MPEG4/ISO/AVC
Duration : 3h 24mn
Bit rate : 12.5 Mbps
Width : 1 920 pixels
Height : 1 088 pixels
Original height : 1 080 pixels
Display aspect ratio : 16:9
Original display aspect ratio : 16:9
Frame rate mode : Constant
Frame rate : 25.000 fps
Standard : Component
Color space : YUV
Chroma subsampling : 4:2:0
Bit depth : 8 bits
Scan type : Interlaced
Scan order : Top Field First
Bits/(Pixel*Frame) : 0.239
Stream size : 17.9 GiB (97%)
Language : English
Default : Yes
Forced : No
Color primaries : BT.709
Transfer characteristics : BT.709
Matrix coefficients : BT.709

Audio
ID : 2
Format : MPEG Audio
Format version : Version 1
Format profile : Layer 2
Codec ID : A_MPEG/L2
Codec ID/Hint : MP2
Duration : 3h 24mn
Bit rate mode : Constant
Bit rate : 192 Kbps
Channel(s) : 2 channels
Sampling rate : 48.0 KHz
Compression mode : Lossy
Delay relative to video : 15ms
Stream size : 281 MiB (1%)
Language : English
Default : Yes
Forced : No
General
Unique ID : 249667094766955272396062686160357911905 (0xBBD422261BB0DF5CB05D6B35D4276D61)
Complete name : F:\Temp\Figure Skating Single Dance\2014.OlympicWinterGames.IceDance.FreeDance.SPORT1.HD.1080i.mkv
Format : Matroska
Format version : Version 4 / Version 2
File size : 14.2 GiB
Duration : 2h 41mn
Overall bit rate : 12.6 Mbps
Movie name : 2014 Olympic Winter Games Figure Skating Ice Dance Free Dance
Encoded date : UTC 2014-02-19 20:57:44
Writing application : mkvmerge v6.5.0 ('Isn't she lovely') built on Oct 20 2013 12:50:05
Writing library : libebml v1.3.0 + libmatroska v1.4.1
Original source form : TV
DATE_BROADCASTED : 2014-02-17 21:45:00
TVCHANNEL : СПОРТ 1 HD

Video
ID : 1
Format : AVC
Format/Info : Advanced Video Codec
Format profile : High@L4.0
Format settings, CABAC : Yes
Format settings, ReFrames : 3 frames
Format settings, GOP : M=4, N=28
Codec ID : V_MPEG4/ISO/AVC
Duration : 2h 41mn
Bit rate : 12.1 Mbps
Width : 1 920 pixels
Height : 1 088 pixels
Original height : 1 080 pixels
Display aspect ratio : 16:9
Original display aspect ratio : 16:9
Frame rate mode : Constant
Frame rate : 25.000 fps
Standard : Component
Color space : YUV
Chroma subsampling : 4:2:0
Bit depth : 8 bits
Scan type : Interlaced
Scan order : Top Field First
Bits/(Pixel*Frame) : 0.232
Stream size : 13.7 GiB (96%)
Language : English
Default : Yes
Forced : No
Color primaries : BT.709
Transfer characteristics : BT.709
Matrix coefficients : BT.709

Audio
ID : 2
Format : MPEG Audio
Format version : Version 1
Format profile : Layer 2
Codec ID : A_MPEG/L2
Codec ID/Hint : MP2
Duration : 2h 41mn
Bit rate mode : Constant
Bit rate : 192 Kbps
Channel(s) : 2 channels
Sampling rate : 48.0 KHz
Compression mode : Lossy
Delay relative to video : -184ms
Stream size : 222 MiB (2%)
Language : Russian
Default : Yes
Forced : No
1 OBRIEN Danielle / MERRIMAN Gregory AUS
2 ZLOBINA Julia / SITNIKOV Alexei AZE
3 PAUL Alexandra / ISLAM Mitchell CAN
4 VIRTUE Tessa / MOIR Scott CAN
5 WEAVER Kaitlyn / POJE Andrew CAN
6 HUANG Xintong / ZHENG Xun CHN
7 CARRON Pernelle / JONES Lloyd FRA
8 PECHALAT Nathalie / BOURZAT Fabian FRA
9 KOLBE Tanja / CARUSO Stefano GER
10 ZHIGANSHINA Nelli / GAZSI Alexander GER
11 COOMES Penny / BUCKLAND Nicholas GBR
12 CAPPELLINI Anna / LANOTTE Luca ITA
13 GUIGNARD Charlene / FABBRI Marco ITA
14 REED Cathy / REED Chris JPN
15 TOBIAS I / STAGNIUNAS D LTU
16 BOBROVA Ekaterina / SOLOVIEV Dmitri RUS
17 ILINYKH Elena / KATSALAPOV Nikita RUS
18 SINITSINA V / ZHIGANSHIN R RUS
19 HURTADO Sara / DIAZ Adria ESP
20 AGAFONOVA Alisa / UCAR Alper TUR
21 HEEKIN-CANEDY Siobhan / DUN Dmitri UKR
22 CHOCK Madison / BATES Evan USA
23 DAVIS Meryl / WHITE Charlie USA
24 SHIBUTANI Maia / SHIBUTANI Alex USA
03:24:00 + 02:41:00


Трекер:  [ 20-Фев-2014 12:02 ]

  

Скачать .torrent

Размер .torrent файла 82 KB


Размер: 32.7 GB
Хэш (hash) релиза: c3f532ed06009b2014729a0c1637b93bab3ae2f4
Подписка на обновления:

Еще никто не оставлял запись к записи скачать торрент XXII ЗОИ 2014. Фигурное катание. Танцы. Все выступления . Будь первым!

!Обратная связь