Скачать через торрент XXII Зимние Олимпийские Игры 2014 Дневник Олимпиады Фильм бесплатно в хорошем качестве torrent

Скачивайте на UnionPeer.org фильмы через торрент без регистрации. Новинки кино в хорошем качестве через торрент. На UnionPeer.org можно скачать через торрент фильмы 2014 и 2015 годов. Самые новые фильмы.

Скачать торрент XXII Зимние Олимпийские Игры 2014 Дневник Олимпиады бесплатно через .torrent фильм мультфильм сериал

Если у вас наблюдаются проблемы со скриншотами, переходом по ссылками, скачиванием торрентов - проблемы в блокировщике рекламы AdBlock. #хорошегоДня!


Статистика раздачи
Размер:  763 MB   |    Зарегистрирован:  3 года 7 месяцев   |    .torrent скачан:  37 раз   |   
Раздают:  1  
   
Загрузка...
 
Автор Сообщение

Galfimbul

avatar Galfimbul


Дневник Олимпиады. Выпуск №22. 19.02.2014 - Вечер

Год выпуска: 2014
Дата эфира: 19 февраля
Ведущий: Дмитрий Губерниев
Язык комментариев: Русский
Продолжительность: 00:26:40

Описание: Вечерний выпуск за 19 февраля 2014 г. Дневника Олимпиады ВГТРК.

НОРМАЛЬНОЕ ЧИСТОЕ ВИДЕО, БЕЗ КОСЯКОВ, КАКИЕ ИМЕЮТСЯ В HD ВЕРСИИ!

Автор рипа: sanchez2011

Качество: DVB
Формат: MPEG-PS
Видео кодек: MPEG2
Аудио кодек: MP2
Видео: MPEG2 Video 720x576 (4:3) 3700kbps 25fps
Аудио: MPEG Audio 48000Hz stereo 192kbps
GeneralComplete name : E:\Олимпиада 2014\Дневник Олимпиады\Дневник Олимпиады. Выпуск №22.mpgFormat : MPEG-PSFile size : 763 MiBDuration : 26mn 40sOverall bit rate mode : VariableOverall bit rate : 3 996 Kbps

VideoID : 224 (0xE0)Format : MPEG VideoFormat version : Version 2Format profile : Main@MainFormat settings, BVOP : YesFormat settings, Matrix : CustomFormat settings, GOP : VariableDuration : 26mn 40sBit rate mode : VariableBit rate : 3 725 KbpsMaximum bit rate : 15.0 MbpsWidth : 720 pixelsHeight : 576 pixelsDisplay aspect ratio : 4:3Frame rate : 25.000 fpsStandard : PALColor space : YUVChroma subsampling : 4:2:0Bit depth : 8 bitsScan type : InterlacedScan order : Top Field FirstCompression mode : LossyBits/(Pixel*Frame) : 0.359Time code of first frame : 00:00:00:00Time code source : Group of pictures headerStream size : 711 MiB (93%)

AudioID : 192 (0xC0)Format : MPEG AudioFormat version : Version 1Format profile : Layer 2Duration : 26mn 40sBit rate mode : ConstantBit rate : 192 KbpsChannel(s) : 2 channelsSampling rate : 48.0 KHzCompression mode : LossyStream size : 36.6 MiB (5%)


Трекер:  [ 20-Фев-2014 00:30 ]

  

Скачать .torrent

Размер .torrent файла 15 KB


Размер: 763 MB
Хэш (hash) релиза: 3f7ea9cfa9c99f051ce91a9d25bbc60618b9b355
Подписка на обновления:

Еще никто не оставлял запись к записи скачать торрент XXII Зимние Олимпийские Игры 2014 Дневник Олимпиады . Будь первым!

!Обратная связь