Скачать через торрент XXII Зимние Олимпийские Игры 2014. Лыжные гонки. Командный спринт. Мужчины, женщины. Финалы Россия HD Фильм бесплатно в хорошем качестве torrent

Скачивайте на UnionPeer.org фильмы через торрент без регистрации. Новинки кино в хорошем качестве через торрент. На UnionPeer.org можно скачать через торрент фильмы 2014 и 2015 годов. Самые новые фильмы.

Скачать торрент XXII Зимние Олимпийские Игры 2014. Лыжные гонки. Командный спринт. Мужчины, женщины. Финалы Россия HD бесплатно через .torrent фильм мультфильм сериал

Если у вас наблюдаются проблемы со скриншотами, переходом по ссылками, скачиванием торрентов - проблемы в блокировщике рекламы AdBlock. #хорошегоДня!


Статистика раздачи
Размер:  5.02 GB   |    Зарегистрирован:  3 года 8 месяцев   |    .torrent скачан:  31 раз   |   
Раздают:  1  
   
Загрузка...
 
Автор Сообщение

Galfimbul

avatar Galfimbul


XXII Зимние Олимпийские Игры 2014. Лыжные гонки. Командный спринт. Мужчины, женщины. Финалы

Вид спорта: Лыжные гонки
Комментарий: Профессиональный
Язык комментариев: Русский (Дмитрий Губерниев)
Описание: XXII Зимние Олимпийские Игры 2014. Лыжные гонки. Командный спринт. Мужчины, женщины. Финалы.

Автор рипа: sanchez2011

Качество: HDTV
Формат: MPEG-TS
Видео кодек: AVC
Аудио кодек: MP2
Видео: MPEG4 Video (H264) 1920x1080 10000kbps 25fps
Аудио: MPEG Audio 48000Hz stereo 224kbps
Все результаты соревнований

Продолжительность: 01:06:32
GeneralID : 1 (0x1)Complete name : E:\Олимпиада 2014\XXII Зимние Олимпийские Игры 2014. 19.02.2014 Лыжные гонки. Командный спринт. Мужчины, женщины. Финалы.tsFormat : MPEG-TSFile size : 5.02 GiBDuration : 1h 6mnOverall bit rate mode : VariableOverall bit rate : 10.8 Mbps

VideoID : 1901 (0x76D)Menu ID : 1 (0x1)Format : AVCFormat/Info : Advanced Video CodecFormat profile : High@L4.0Format settings, CABAC : YesFormat settings, ReFrames : 3 framesCodec ID : 27Duration : 1h 6mnBit rate : 10.0 MbpsWidth : 1 920 pixelsHeight : 1 080 pixelsDisplay aspect ratio : 16:9Frame rate : 25.000 fpsStandard : ComponentColor space : YUVChroma subsampling : 4:2:0Bit depth : 8 bitsScan type : InterlacedScan order : Top Field FirstBits/(Pixel*Frame) : 0.194Stream size : 4.67 GiB (93%)Color primaries : BT.709Transfer characteristics : BT.709Matrix coefficients : BT.709

AudioID : 2901 (0xB55)Menu ID : 1 (0x1)Format : MPEG AudioFormat version : Version 1Format profile : Layer 2Codec ID : 3Duration : 1h 6mnBit rate mode : ConstantBit rate : 224 KbpsChannel(s) : 2 channelsSampling rate : 48.0 KHzCompression mode : LossyStream size : 107 MiB (2%)Language : Russian


Трекер:  [ 19-Фев-2014 16:05 ]

  

Скачать .torrent

Размер .torrent файла 25 KB


Размер: 5.02 GB
Хэш (hash) релиза: acc6b1fcc84cac4e21bc3363d0edd3d848ec74b5
Подписка на обновления:

Еще никто не оставлял запись к записи скачать торрент XXII Зимние Олимпийские Игры 2014. Лыжные гонки. Командный спринт. Мужчины, женщины. Финалы Россия HD . Будь первым!

!Обратная связь