Скачать через торрент XXII Зимние Олимпийские Игры 2014. Сноуборд-кросс. Мужчины. 4, 1 Фильм бесплатно в хорошем качестве torrent

Скачивайте на UnionPeer.org фильмы через торрент без регистрации. Новинки кино в хорошем качестве через торрент. На UnionPeer.org можно скачать через торрент фильмы 2014 и 2015 годов. Самые новые фильмы.

Скачать торрент XXII Зимние Олимпийские Игры 2014. Сноуборд-кросс. Мужчины. 4, 1 бесплатно через .torrent фильм мультфильм сериал

Если у вас наблюдаются проблемы со скриншотами, переходом по ссылками, скачиванием торрентов - проблемы в блокировщике рекламы AdBlock. #хорошегоДня!


Статистика раздачи
Размер:  5.55 GB   |    Зарегистрирован:  3 года 9 месяцев   |    .torrent скачан:  34 раза   |   
Раздают:  1  
   
Загрузка...
 
Автор Сообщение

Galfimbul

avatar Galfimbul


XXII Зимние Олимпийские Игры 2014. Сноуборд-кросс. Мужчины. 1/4, 1/2, Финал

Вид спорта: Ски-хафпайп
Комментарий: Профессиональный
Язык комментариев: Русский
Описание: XXII Зимние Олимпийские Игры 2014. Сноуборд-кросс. Мужчины. Все четвертьфиналы, полуфиналы, малый и большой финалы.

Автор рипа: sanchez2011

Качество: HDTV
Формат: MPEG-TS
Видео кодек: AVC
Аудио кодек: MP2
Видео: MPEG4 Video (H264) 1920x1080 14Mbps 25fps
Аудио: MPEG Audio 48000Hz stereo 192kbps
Все результаты соревнований

Продолжительность: 00:53:37
GeneralID : 1 (0x1)Complete name : E:\Олимпиада 2014\XXII Зимние Олимпийские Игры 2014. 18.02.2014 Сноуборд-кросс. Мужчины.tsFormat : MPEG-TSFile size : 5.55 GiBDuration : 53mn 37sOverall bit rate mode : VariableOverall bit rate : 14.8 Mbps

VideoID : 2141 (0x85D)Menu ID : 1 (0x1)Format : AVCFormat/Info : Advanced Video CodecFormat profile : Main@L4.0Format settings, CABAC : YesFormat settings, ReFrames : 3 framesCodec ID : 27Duration : 53mn 37sBit rate : 13.9 MbpsWidth : 1 920 pixelsHeight : 1 080 pixelsDisplay aspect ratio : 16:9Frame rate : 25.000 fpsStandard : ComponentColor space : YUVChroma subsampling : 4:2:0Bit depth : 8 bitsScan type : InterlacedScan order : Top Field FirstBits/(Pixel*Frame) : 0.268Stream size : 5.21 GiB (94%)Color primaries : BT.709Transfer characteristics : BT.709Matrix coefficients : BT.709

AudioID : 2142 (0x85E)Menu ID : 1 (0x1)Format : MPEG AudioFormat version : Version 1Format profile : Layer 2Codec ID : 3Duration : 53mn 37sBit rate mode : ConstantBit rate : 192 KbpsChannel(s) : 2 channelsSampling rate : 48.0 KHzCompression mode : LossyStream size : 73.7 MiB (1%)Language : Russian


Трекер:  [ 18-Фев-2014 21:59 ]

  

Скачать .torrent

Размер .torrent файла 28 KB


Размер: 5.55 GB
Хэш (hash) релиза: bdcd3d591d5dd88663ffbadd06ff46ed860758b8
Подписка на обновления:

Торренты, похожие на XXII Зимние Олимпийские Игры 2014. Сноуборд-кросс. Мужчины. 4, 1 скачать торрент

Форум Название Автор Размер S L Добавлен
Зимние Олимпийские игры в Сочи 2014 ·· XXII Зимние Олимпийские Игры 2014. Сноуборд-кросс. Мужчины. 1/4, 1/2, Финал / Первый Канал HD [18.02.2014 г., Сноуборд-кросс, HDTVRip, MKV, 400p] Galfimbul 554433334529 MB 0 0 1392752890

22:48

18-Фев-14

Еще никто не оставлял запись к записи скачать торрент XXII Зимние Олимпийские Игры 2014. Сноуборд-кросс. Мужчины. 4, 1 . Будь первым!

!Обратная связь