Скачать через торрент XXII Зимние Олимпийские Игры 2014. Ски-хафпайп. Квалификация. Мужчины Первый Канал HD Фильм бесплатно в хорошем качестве torrent

Скачивайте на UnionPeer.org фильмы через торрент без регистрации. Новинки кино в хорошем качестве через торрент. На UnionPeer.org можно скачать через торрент фильмы 2014 и 2015 годов. Самые новые фильмы.

Скачать торрент XXII Зимние Олимпийские Игры 2014. Ски-хафпайп. Квалификация. Мужчины Первый Канал HD бесплатно через .torrent фильм мультфильм сериал

Если у вас наблюдаются проблемы со скриншотами, переходом по ссылками, скачиванием торрентов - проблемы в блокировщике рекламы AdBlock. #хорошегоДня!


Статистика раздачи
Размер:  1.07 GB   |    Зарегистрирован:  3 года 8 месяцев   |    .torrent скачан:  33 раза   |   
Раздают:  1  
   
Загрузка...
 
Автор Сообщение

Galfimbul

avatar Galfimbul


XXII Зимние Олимпийские Игры 2014. Ски-хафпайп. Квалификация. Мужчины

Вид спорта: Ски-хафпайп
Комментарий: Профессиональный
Язык комментариев: Русский
Описание: XXII Зимние Олимпийские Игры 2014. Ски-хафпайп. Квалификация. Мужчины.

Урезана 1 попытка, вторая же почти полностью.

Автор рипа: sanchez2011

Качество: HDTVRip
Формат: MKV
Видео кодек: AVC
Аудио кодек: MP3
Видео: MPEG4 Video (H264) 704x400 ~1700kbps 25fps
Аудио: MPEG Audio Layer 3 48000Hz stereo 128kbps
Все результаты соревнований

Продолжительность: 01:24:09
GeneralUnique ID : 1232619823165257777796912861123586549 (0xED64D96E92D7B35C68ED714E5A29F5)Complete name : E:\Олимпиада 2014\XXII Зимние Олимпийские Игры 2014. 18.02.2014 Ски-хафпайп. Квалификация. Мужчины.mkvFormat : MatroskaFormat version : Version 2File size : 1.07 GiBDuration : 1h 24mnOverall bit rate : 1 815 KbpsWriting application : XviD4PSP 6.0 / 53.6.0Writing library : XviD4PSP 6.0 / 53.6.0

VideoID : 1Format : AVCFormat/Info : Advanced Video CodecFormat profile : High@L4.1Format settings, CABAC : YesFormat settings, ReFrames : 3 framesCodec ID : V_MPEG4/ISO/AVCDuration : 1h 24mnBit rate : 1 650 KbpsWidth : 704 pixelsHeight : 400 pixelsDisplay aspect ratio : 16:9Frame rate mode : ConstantFrame rate : 25.000 fpsColor space : YUVChroma subsampling : 4:2:0Bit depth : 8 bitsScan type : ProgressiveBits/(Pixel*Frame) : 0.234Stream size : 993 MiB (91%)Writing library : x264 core 116 r2019M 9cc407dEncoding settings : cabac=1 / ref=3 / deblock=1:0:0 / analyse=0x3:0x133 / me=hex / subme=7 / psy=1 / psy_rd=1.00:0.20 / mixed_ref=1 / me_range=16 / chroma_me=1 / trellis=1 / 8x8dct=1 / cqm=0 / deadzone=21,11 / fast_pskip=1 / chroma_qp_offset=-3 / threads=8 / sliced_threads=0 / nr=0 / decimate=1 / interlaced=0 / bluray_compat=0 / constrained_intra=0 / bframes=3 / b_pyramid=1 / b_adapt=2 / b_bias=0 / direct=3 / weightb=1 / open_gop=0 / weightp=2 / keyint=250 / keyint_min=25 / scenecut=40 / intra_refresh=0 / rc_lookahead=40 / rc=crf / mbtree=1 / crf=21.0 / qcomp=0.60 / qpmin=10 / qpmax=51 / qpstep=4 / ip_ratio=1.40 / aq=1:1.00Default : YesForced : No

AudioID : 2Format : MPEG AudioFormat version : Version 1Format profile : Layer 3Mode : Joint stereoCodec ID : A_MPEG/L3Codec ID/Hint : MP3Duration : 1h 24mnBit rate mode : ConstantBit rate : 128 KbpsChannel(s) : 2 channelsSampling rate : 48.0 KHzCompression mode : LossyStream size : 77.0 MiB (7%)Language : RussianDefault : YesForced : No


Трекер:  [ 18-Фев-2014 21:59 ]

  

Скачать .torrent

Размер .torrent файла 11 KB


Размер: 1.07 GB
Хэш (hash) релиза: 56539052f43dbbe73747839dac82c1474f5b33cb
Подписка на обновления:

Торренты, похожие на XXII Зимние Олимпийские Игры 2014. Ски-хафпайп. Квалификация. Мужчины Первый Канал HD скачать торрент

Форум Название Автор Размер S L Добавлен
Зимние Олимпийские игры в Сочи 2014 ·· XXII Зимние Олимпийские Игры 2014. Ски-хафпайп. Квалификация. Мужчины / Первый Канал HD [18.02.2014 г., Ски-хафпайп, HDTV, 1080i] Galfimbul 101574653489.46 GB 0 0 1392743863

20:17

18-Фев-14

Еще никто не оставлял запись к записи скачать торрент XXII Зимние Олимпийские Игры 2014. Ски-хафпайп. Квалификация. Мужчины Первый Канал HD . Будь первым!

!Обратная связь