Скачать через торрент XXII Зимние Олимпийские Игры 2014. Ски-хафпайп. Квалификация. Мужчины Первый Канал HD Фильм бесплатно в хорошем качестве torrent

Скачивайте на UnionPeer.org фильмы через торрент без регистрации. Новинки кино в хорошем качестве через торрент. На UnionPeer.org можно скачать через торрент фильмы 2014 и 2015 годов. Самые новые фильмы.

Скачать торрент XXII Зимние Олимпийские Игры 2014. Ски-хафпайп. Квалификация. Мужчины Первый Канал HD бесплатно через .torrent фильм мультфильм сериал

Если у вас наблюдаются проблемы со скриншотами, переходом по ссылками, скачиванием торрентов - проблемы в блокировщике рекламы AdBlock. #хорошегоДня!


Статистика раздачи
Размер:  9.46 GB   |    Зарегистрирован:  3 года 7 месяцев   |    .torrent скачан:  34 раза   |   
Раздают:  1  
   
Загрузка...
 
Автор Сообщение

Galfimbul

avatar Galfimbul


XXII Зимние Олимпийские Игры 2014. Ски-хафпайп. Квалификация. Мужчины

Вид спорта: Ски-хафпайп
Комментарий: Профессиональный
Язык комментариев: Русский
Описание: XXII Зимние Олимпийские Игры 2014. Ски-хафпайп. Квалификация. Мужчины.

Автор рипа: sanchez2011

Качество: HDTV
Формат: MPEG-TS
Видео кодек: AVC
Аудио кодек: MP2
Видео: MPEG4 Video (H264) 1920x1080 15.1Mbps 25fps
Аудио: MPEG Audio 48000Hz stereo 192kbps
Все результаты соревнований

Продолжительность: 01:24:09
GeneralID : 1 (0x1)Complete name : E:\Олимпиада 2014\XXII Зимние Олимпийские Игры 2014. 18.02.2014 Ски-хафпайп. Квалификация. Мужчины.tsFormat : MPEG-TSFile size : 9.46 GiBDuration : 1h 24mnOverall bit rate mode : VariableOverall bit rate : 16.1 Mbps

VideoID : 2141 (0x85D)Menu ID : 1 (0x1)Format : AVCFormat/Info : Advanced Video CodecFormat profile : Main@L4.0Format settings, CABAC : YesFormat settings, ReFrames : 3 framesCodec ID : 27Duration : 1h 24mnBit rate : 15.1 MbpsWidth : 1 920 pixelsHeight : 1 080 pixelsDisplay aspect ratio : 16:9Frame rate : 25.000 fpsStandard : ComponentColor space : YUVChroma subsampling : 4:2:0Bit depth : 8 bitsScan type : InterlacedScan order : Top Field FirstBits/(Pixel*Frame) : 0.291Stream size : 8.88 GiB (94%)Color primaries : BT.709Transfer characteristics : BT.709Matrix coefficients : BT.709

AudioID : 2142 (0x85E)Menu ID : 1 (0x1)Format : MPEG AudioFormat version : Version 1Format profile : Layer 2Codec ID : 3Duration : 1h 24mnBit rate mode : ConstantBit rate : 192 KbpsChannel(s) : 2 channelsSampling rate : 48.0 KHzCompression mode : LossyStream size : 116 MiB (1%)Language : Russian


Трекер:  [ 18-Фев-2014 20:17 ]

  

Скачать .torrent

Размер .torrent файла 48 KB


Размер: 9.46 GB
Хэш (hash) релиза: c32455a717e69bdfd7fd10f9a3f2a7c8735ec297
Подписка на обновления:

Торренты, похожие на XXII Зимние Олимпийские Игры 2014. Ски-хафпайп. Квалификация. Мужчины Первый Канал HD скачать торрент

Форум Название Автор Размер S L Добавлен
Зимние Олимпийские игры в Сочи 2014 ·· XXII Зимние Олимпийские Игры 2014. Ски-хафпайп. Квалификация. Мужчины / Первый Канал HD [18.02.2014 г., Ски-хафпайп, HDTVRip, MKV, 400p] Galfimbul 11452045381.07 GB 0 0 1392749945

21:59

18-Фев-14

Еще никто не оставлял запись к записи скачать торрент XXII Зимние Олимпийские Игры 2014. Ски-хафпайп. Квалификация. Мужчины Первый Канал HD . Будь первым!

!Обратная связь