Скачать через торрент Звезда: Мир будет покорён! Sekai Seifuku: Bouryaku no Zvezda бесплатно Аниме Все серии на русском torrent

Если у вас наблюдаются проблемы со скриншотами, переходом по ссылками, скачиванием торрентов - проблемы в блокировщике рекламы AdBlock. #хорошегоДня!


Статистика раздачи
Размер:  2.33 GB   |    Зарегистрирован:  3 года 7 месяцев   |    .torrent скачан:  30 раз   |   
Раздают:  1  
   
Загрузка...
 
Автор Сообщение

Polarnik

avatar Polarnik


Звезда: Мир будет покорён! / Sekai Seifuku: Bouryaku no Zvezda / World Conquest Zvezda Plot
Страна: Япония
Год выпуска: 2014 г.
Жанр: Приключения
Продолжительность: >12 эп. по 25 мин
русские субтитры: внешним файлом
Перевод на русский: YakuSub Studio
Редактор: Harushechka
Оформление: Helge
Переводчик/Перевод песен: Lulu
Русские субтитры: Ambiente
Редактор: BO3DYX
Переводчик/Оформление: Матадор
Русские субтитры: Dreamers Team
Переводчик/Перевод песен/Оформление: junnes

Режиссер: Окамура Тэнсай

Студия:

Описание: В прошлом многие стремились захватить мир, но никому этого не удавалось. Однако, одна девушка смогла достигнуть успеха. Сюжет повествует о ней и ее секретном обществе Звезда, а также о том как они захватили мир.

Равка: Zero-Raws
Хардсаб: Отсутствует
Качество: HDTVRip
Формат видео: mp4
Видео: AVC, 8 bits, 1280x720; 23.976 fps; 1703 Kbps, (16:9)
Аудио:
1. JP - AAC, 48.0 KHz, 192 kbps, 2 ch
01. Покорение человечества
Общее
Полное имя : D:\[Zero-Raws]\[Zero-Raws] Sekai Seifuku Bouryaku no Zvezda\[Zero-Raws] Sekai Seifuku Bouryaku no Zvezda - 01 (MX 1280x720 x264 AAC).mp4
Формат : MPEG-4
Профиль формата : Base Media
Идентификатор кодека : isom
Размер файла : 343 Мбайт
Продолжительность : 24 м.
Режим общего битрейта : Переменный
Общий поток : 1959 Кбит/сек
Дата кодирования : UTC 2014-01-11 16:01:45
Дата пометки : UTC 2014-01-11 16:01:45

Видео
Идентификатор : 1
Формат : AVC
Формат/Информация : Advanced Video Codec
Профиль формата : High@L3.1
Параметр CABAC формата : Да
Параметр ReFrames формата : 4 кадра
Идентификатор кодека : avc1
Идентификатор кодека/Информация : Advanced Video Coding
Продолжительность : 24 м.
Битрейт : 1703 Кбит/сек
Максимальный битрейт : 17,5 Мбит/сек
Ширина : 1280 пикселей
Высота : 720 пикселей
Соотношение сторон : 16:9
Режим частоты кадров : Постоянный
Частота кадров : 23,976 кадра/сек
Цветовое пространство : YUV
Субдискретизация насыщенности : 4:2:0
Битовая глубина : 8 бит
Тип развёртки : Прогрессивная
Бит/(Пиксели*Кадры) : 0.077
Размер потока : 298 Мбайт (87%)
Библиотека кодирования : x264 core 133 r2334 a3ac64b
Настройки программы : cabac=1 / ref=3 / deblock=1:0:0 / analyse=0x3:0x113 / me=hex / subme=7 / psy=1 / psy_rd=1.00:0.00 / mixed_ref=1 / me_range=16 / chroma_me=1 / trellis=1 / 8x8dct=1 / cqm=0 / deadzone=21,11 / fast_pskip=1 / chroma_qp_offset=-2 / threads=12 / lookahead_threads=2 / sliced_threads=0 / nr=0 / decimate=1 / interlaced=0 / bluray_compat=0 / constrained_intra=0 / bframes=3 / b_pyramid=2 / b_adapt=1 / b_bias=0 / direct=1 / weightb=1 / open_gop=0 / weightp=2 / keyint=250 / keyint_min=23 / scenecut=40 / intra_refresh=0 / rc_lookahead=40 / rc=crf / mbtree=1 / crf=19.5 / qcomp=0.60 / qpmin=0 / qpmax=69 / qpstep=4 / ip_ratio=1.40 / aq=1:1.00
Дата кодирования : UTC 2014-01-11 15:43:46
Дата пометки : UTC 2014-01-11 16:01:46

Аудио
Идентификатор : 2
Формат : AAC
Формат/Информация : Advanced Audio Codec
Профиль формата : LC
Идентификатор кодека : 40
Продолжительность : 24 м.
Вид битрейта : Переменный
Битрейт : 252 Кбит/сек
Максимальный битрейт : 258 Кбит/сек
Каналы : 2 канала
Расположение каналов : Front: L R
Частота : 48,0 КГц
Метод сжатия : С потерями
Размер потока : 44,2 Мбайт (13%)
Заголовок : aac#trackID=1:lang=Japanese@GPAC0.5.1-DEV-rev4708
Язык : Japanese
Дата кодирования : UTC 2014-01-11 16:01:45
Дата пометки : UTC 2014-01-11 16:01:46


Трекер:  [ 18-Фев-2014 20:02 ]

  

Скачать .torrent

Размер .torrent файла 14 KB


Размер: 2.33 GB
Хэш (hash) релиза: 4792001db859aeded051a0e9866614bd618d7350
Подписка на обновления:

Торренты, похожие на Звезда: Мир будет покорён! Sekai Seifuku: Bouryaku no Zvezda скачать торрент

Форум Название Автор Размер S L Добавлен
Аниме | HD Rips ·· Звезда: Мир будет покорён! / Sekai Seifuku: Bouryaku no Zvezda / World Conquest Zvezda Plot (Окамура Тэнсай) [TV+Special] [12+1 из 12+1] [без хардсаба] [JAP+SUB] [2014, приключения, комедия, BDRemux] [1080p] Galfimbul 8445015081978.65 GB 0 0 1480883475

23:31

4-Дек-16

Аниме | HD Rips ·· Звезда: Мир будет покорён! / Sekai Seifuku: Bouryaku no Zvezda / World Conquest Zvezda Plot (Окамура Тэнсай) [TV] [4+0 из 12+1] [без хардсаба] [JAP+SUB] [2014 г., приключения, комедия, BDRemux] [1080p] Galfimbul 2596883917024.19 GB 0 0 1429479975

00:46

20-Апр-15

Аниме | HD Rips ·· Звезда: Мир будет покорён! / World Conquest Zvezda Plot / Sekai Seifuku Bouryaku no Zvezda [Special] [1 из 1] [Без хардсаба] [JAP, SUB] [2014 г., приключения, комедия, BDRip] [720p] Galfimbul 322601003308 MB 0 0 1456332770

19:52

24-Фев-16

Аниме | HD Rips ·· Звезда: Мир будет покорён! / World Conquest Zvezda Plot / Sekai Seifuku - Bouryaku no Zvezda [Special] [1 из 1] [Без хардсаба] [JAP, SUB] [2014 г., приключения, BDRip] [720p] Galfimbul 322473480308 MB 0 0 1420141797

22:49

1-Янв-15

Еще никто не оставлял запись к записи скачать торрент Звезда: Мир будет покорён! Sekai Seifuku: Bouryaku no Zvezda . Будь первым!

!Обратная связь