Скачать через торрент XXII Зимние Олимпийские Игры 2014. Лыжное двоеборье. Мужчины. Личный старт. Масс-старт 10 км Первый Канал HD Фильм бесплатно в хорошем качестве torrent

Скачивайте на UnionPeer.org фильмы через торрент без регистрации. Новинки кино в хорошем качестве через торрент. На UnionPeer.org можно скачать через торрент фильмы 2014 и 2015 годов. Самые новые фильмы.

Скачать торрент XXII Зимние Олимпийские Игры 2014. Лыжное двоеборье. Мужчины. Личный старт. Масс-старт 10 км Первый Канал HD бесплатно через .torrent фильм мультфильм сериал

Если у вас наблюдаются проблемы со скриншотами, переходом по ссылками, скачиванием торрентов - проблемы в блокировщике рекламы AdBlock. #хорошегоДня!


Статистика раздачи
Размер:  3.21 GB   |    Зарегистрирован:  3 года 7 месяцев   |    .torrent скачан:  30 раз   |   
Раздают:  1  
   
Загрузка...
 
Автор Сообщение

Galfimbul

avatar Galfimbul


XXII Зимние Олимпийские Игры 2014. Лыжное двоеборье. Мужчины. Личный старт. Масс-старт 10 км

Вид спорта: Лыжное двоеборье
Комментарий: Профессиональный
Язык комментариев: Русский (Сергей Курдюков)
Описание: XXII Зимние Олимпийские Игры 2014. Лыжное двоеборье. Мужчины. Личный старт. Масс-старт 10 км.

Автор рипа: sanchez2011

Качество: HDTV
Формат: MPEG-TS
Видео кодек: AVC
Аудио кодек: MP2
Видео: MPEG4 Video (H264) 1920x1080 14Mbps 25fps
Аудио: MPEG Audio 48000Hz stereo 192kbps
Все результаты соревнований

Продолжительность: 00:31:11
GeneralID : 1 (0x1)Complete name : E:\Олимпиада 2014\XXII Зимние Олимпийские Игры 2014. 18.02.2014 Лыжное двоеборье. Мужчины. Личный старт. Масс-старт 10 км.tsFormat : MPEG-TSFile size : 3.21 GiBDuration : 31mn 11sOverall bit rate mode : VariableOverall bit rate : 14.7 Mbps

VideoID : 2141 (0x85D)Menu ID : 1 (0x1)Format : AVCFormat/Info : Advanced Video CodecFormat profile : Main@L4.0Format settings, CABAC : YesFormat settings, ReFrames : 3 framesFormat settings, GOP : M=4, N=28Codec ID : 27Duration : 31mn 11sBit rate : 13.8 MbpsWidth : 1 920 pixelsHeight : 1 080 pixelsDisplay aspect ratio : 16:9Frame rate : 25.000 fpsStandard : ComponentColor space : YUVChroma subsampling : 4:2:0Bit depth : 8 bitsScan type : InterlacedScan order : Top Field FirstBits/(Pixel*Frame) : 0.267Stream size : 3.01 GiB (94%)Color primaries : BT.709Transfer characteristics : BT.709Matrix coefficients : BT.709

AudioID : 2142 (0x85E)Menu ID : 1 (0x1)Format : MPEG AudioFormat version : Version 1Format profile : Layer 2Codec ID : 3Duration : 31mn 11sBit rate mode : ConstantBit rate : 192 KbpsChannel(s) : 2 channelsSampling rate : 48.0 KHzCompression mode : LossyStream size : 42.8 MiB (1%)Language : Russian


Трекер:  [ 18-Фев-2014 18:57 ]

  

Скачать .torrent

Размер .torrent файла 16 KB


Размер: 3.21 GB
Хэш (hash) релиза: 6fc9513ae4fc6e1b25097fc8c765265e709e6f66
Подписка на обновления:

Торренты, похожие на XXII Зимние Олимпийские Игры 2014. Лыжное двоеборье. Мужчины. Личный старт. Масс-старт 10 км Первый Канал HD скачать торрент

Форум Название Автор Размер S L Добавлен
Зимние Олимпийские игры в Сочи 2014 ·· XXII Зимние Олимпийские Игры 2014. Лыжное двоеборье. Мужчины. Личный старт. Масс-старт 10 км / Первый Канал HD [18.02.2014 г., Лыжное двоеборье, HDTVRip, MKV, 400p] Galfimbul 378434757361 MB 0 0 1392743856

20:17

18-Фев-14

Еще никто не оставлял запись к записи скачать торрент XXII Зимние Олимпийские Игры 2014. Лыжное двоеборье. Мужчины. Личный старт. Масс-старт 10 км Первый Канал HD . Будь первым!

!Обратная связь