Скачать через торрент XXII Зимние Олимпийские Игры 2014. Кёрлинг. Круговой этап. Мужчины. Норвегия - Дания. ORF 1 HD Фильм бесплатно в хорошем качестве torrent

Скачивайте на UnionPeer.org фильмы через торрент без регистрации. Новинки кино в хорошем качестве через торрент. На UnionPeer.org можно скачать через торрент фильмы 2014 и 2015 годов. Самые новые фильмы.

Скачать торрент XXII Зимние Олимпийские Игры 2014. Кёрлинг. Круговой этап. Мужчины. Норвегия - Дания. ORF 1 HD бесплатно через .torrent фильм мультфильм сериал

Если у вас наблюдаются проблемы со скриншотами, переходом по ссылками, скачиванием торрентов - проблемы в блокировщике рекламы AdBlock. #хорошегоДня!


Статистика раздачи
Размер:  8.07 GB   |    Зарегистрирован:  3 года 8 месяцев   |    .torrent скачан:  24 раза   |   
Раздают:  1  
   
Загрузка...
 
Автор Сообщение

Galfimbul

avatar Galfimbul


XXII Зимние Олимпийские Игры 2014. Кёрлинг. Круговой этап. Мужчины. Норвегия - Дания. ORF 1 HD

Вид спорта: Кёрлинг
Дата/Год выпуска: 17.02.14
Язык комментариев: немецкий

Автор записи: SashaR.

Качество: DVB-S2 Remux
Формат видео: TS
Видео: AVC, 1280x720, 16:9, 8 004 Kbps, 50 fps
Аудио: MP2, 160 kbps, 48 kHz, 2 channels
Аудио: MP2, 160 kbps, 48 kHz, 2 channels
Аудио: AC-3, 448 kbps, 48 kHz, 6 channels
G:\Олимпиада\Кёрлинг, Мужчины. Норвегия - Дания (ORF 1 HD).ts
General #1007
ID : 1007 (0x3EF)
Complete name : G:\Олимпиада\Кёрлинг, Мужчины. Норвегия - Дания (ORF 1 HD).ts
Format : MPEG-TS
File size : 8.07 GiB
Duration : 2h 5mn
Overall bit rate mode : Variable
Overall bit rate : 9 236 Kbps
Video #1920
ID : 1920 (0x780)
Menu ID : 4911 (0x132F)
Format : AVC
Format/Info : Advanced Video Codec
Format profile : High@L4.0
Format settings, CABAC : Yes
Format settings, ReFrames : 4 frames
Format settings, GOP : M=4, N=32
Codec ID : 27
Duration : 2h 5mn
Bit rate : 8 004 Kbps
Width : 1 280 pixels
Height : 720 pixels
Display aspect ratio : 16:9
Frame rate : 50.000 fps
Color space : YUV
Chroma subsampling : 4:2:0
Bit depth : 8 bits
Scan type : Progressive
Bits/(Pixel*Frame) : 0.174
Stream size : 7.00 GiB (87%)
Audio #1921
ID : 1921 (0x781)
Menu ID : 4911 (0x132F)
Format : MPEG Audio
Format version : Version 1
Format profile : Layer 2
Mode : Joint stereo
Codec ID : 4
Duration : 2h 5mn
Bit rate mode : Constant
Bit rate : 160 Kbps
Channel count : 2 channels
Sampling rate : 48.0 KHz
Compression mode : Lossy
Delay relative to video : 32ms
Stream size : 143 MiB (2%)
Language : German
Language, more info : Clean effects
Audio #1922
ID : 1922 (0x782)
Menu ID : 4911 (0x132F)
Format : MPEG Audio
Format version : Version 1
Format profile : Layer 2
Mode : Joint stereo
Codec ID : 4
Duration : 2h 5mn
Bit rate mode : Constant
Bit rate : 160 Kbps
Channel count : 2 channels
Sampling rate : 48.0 KHz
Compression mode : Lossy
Delay relative to video : 32ms
Stream size : 143 MiB (2%)
Language : English
Language, more info : Clean effects
Audio #1923
ID : 1923 (0x783)
Menu ID : 4911 (0x132F)
Format : AC-3
Format/Info : Audio Coding 3
Mode extension : CM (complete main)
Format settings, Endianness : Big
Codec ID : 6
Duration : 2h 5mn
Bit rate mode : Constant
Bit rate : 448 Kbps
Channel count : 6 channels
Channel positions : Front: L C R, Side: L R, LFE
Sampling rate : 48.0 KHz
Bit depth : 16 bits
Compression mode : Lossy
Delay relative to video : 42ms
Stream size : 401 MiB (5%)
Language : German
Language, more info : Clean effects
02:05:07


Трекер:  [ 18-Фев-2014 10:14 ]

  

Скачать .torrent

Размер .torrent файла 81 KB


Размер: 8.07 GB
Хэш (hash) релиза: 792d80824877e36c920df9f770dcfd92b3fcc6ee
Подписка на обновления:

Еще никто не оставлял запись к записи скачать торрент XXII Зимние Олимпийские Игры 2014. Кёрлинг. Круговой этап. Мужчины. Норвегия - Дания. ORF 1 HD . Будь первым!

!Обратная связь