Скачать через торрент XXII Зимние Олимпийские Игры 2014 Бобслей, Двойки Фильм бесплатно в хорошем качестве torrent

Скачивайте на UnionPeer.org фильмы через торрент без регистрации. Новинки кино в хорошем качестве через торрент. На UnionPeer.org можно скачать через торрент фильмы 2014 и 2015 годов. Самые новые фильмы.

Скачать торрент XXII Зимние Олимпийские Игры 2014 Бобслей, Двойки бесплатно через .torrent фильм мультфильм сериал

Если у вас наблюдаются проблемы со скриншотами, переходом по ссылками, скачиванием торрентов - проблемы в блокировщике рекламы AdBlock. #хорошегоДня!


Статистика раздачи
Размер:  20.07 GB   |    Зарегистрирован:  3 года 8 месяцев   |    .torrent скачан:  39 раз   |   
Раздают:  1  
   
Загрузка...
 
Автор Сообщение

Galfimbul

avatar Galfimbul


XXII Зимние Олимпийские Игры 2014 / Бобслей, Двойки / Мужчины / НТВ+, ORF 1 HD

Вид спорта: Бобслей
Дата/Год выпуска: 17.02.14
Язык комментариев: русский, немецкий

Автор записи: SashaR.

Качество: DVB-S2 Remux
Формат видео: TS

Видео: AVC, 1920x1080, 16:9, 15.2 Mbps, 25 fps
Аудио: MP2, 192 kbps, 48 kHz, 2 channels

Видео: AVC, 1280x720, 16:9, 10.8 Mbps, 25 fps
Аудио: MP2, 160 kbps, 48 kHz, 2 channels
G:\Олимпиада\Бобслей. Двойки. Мужчины (НТВ+, ORF 1 HD)\Бобслей. Мужчины. Двойки. 3-я и 4-я попытка (НТВ+).ts
General #6
ID : 6 (0x6)
Complete name : G:\Олимпиада\Бобслей. Двойки. Мужчины (НТВ+, ORF 1 HD)\Бобслей. Мужчины. Двойки. 3-я и 4-я попытка (НТВ+).ts
Format : MPEG-TS
File size : 8.62 GiB
Duration : 1h 16mn
Overall bit rate mode : Variable
Overall bit rate : 16.2 Mbps
Video #301
ID : 301 (0x12D)
Menu ID : 17101 (0x42CD)
Format : AVC
Format/Info : Advanced Video Codec
Format profile : High@L4.0
Format settings, CABAC : Yes
Format settings, ReFrames : 3 frames
Codec ID : 27
Duration : 1h 16mn
Bit rate : 15.2 Mbps
Width : 1 920 pixels
Height : 1 080 pixels
Display aspect ratio : 16:9
Frame rate : 25.000 fps
Standard : Component
Color space : YUV
Chroma subsampling : 4:2:0
Bit depth : 8 bits
Scan type : Interlaced
Scan order : Top Field First
Bits/(Pixel*Frame) : 0.293
Stream size : 8.09 GiB (94%)
Color primaries : BT.709
Transfer characteristics : BT.709
Matrix coefficients : BT.709
Audio #401
ID : 401 (0x191)
Menu ID : 17101 (0x42CD)
Format : MPEG Audio
Format version : Version 1
Format profile : Layer 2
Codec ID : 4
Duration : 1h 16mn
Bit rate mode : Constant
Bit rate : 192 Kbps
Channel count : 2 channels
Sampling rate : 48.0 KHz
Compression mode : Lossy
Delay relative to video : 63ms
Stream size : 105 MiB (1%)
Language : Russian
Language, more info : Clean effects

G:\Олимпиада\Бобслей. Двойки. Мужчины (НТВ+, ORF 1 HD)\Бобслей. Двойки. 3-я попытка (ORF 1 HD).ts
General #1007
ID : 1007 (0x3EF)
Complete name : G:\Олимпиада\Бобслей. Двойки. Мужчины (НТВ+, ORF 1 HD)\Бобслей. Двойки. 3-я попытка (ORF 1 HD).ts
Format : MPEG-TS
File size : 2.09 GiB
Duration : 24mn 32s
Overall bit rate mode : Variable
Overall bit rate : 12.2 Mbps
Video #1920
ID : 1920 (0x780)
Menu ID : 4911 (0x132F)
Format : AVC
Format/Info : Advanced Video Codec
Format profile : High@L4.0
Format settings, CABAC : Yes
Format settings, ReFrames : 4 frames
Format settings, GOP : M=4, N=32
Codec ID : 27
Duration : 24mn 32s
Bit rate : 10.8 Mbps
Width : 1 280 pixels
Height : 720 pixels
Display aspect ratio : 16:9
Frame rate : 50.000 fps
Color space : YUV
Chroma subsampling : 4:2:0
Bit depth : 8 bits
Scan type : Progressive
Bits/(Pixel*Frame) : 0.235
Stream size : 1.86 GiB (89%)
Audio #1921
ID : 1921 (0x781)
Menu ID : 4911 (0x132F)
Format : MPEG Audio
Format version : Version 1
Format profile : Layer 2
Mode : Joint stereo
Mode extension : MS Stereo
Codec ID : 4
Duration : 24mn 32s
Bit rate mode : Constant
Bit rate : 160 Kbps
Channel count : 2 channels
Sampling rate : 48.0 KHz
Compression mode : Lossy
Delay relative to video : 13ms
Stream size : 28.1 MiB (1%)
Language : German
Language, more info : Clean effects
Audio #1922
ID : 1922 (0x782)
Menu ID : 4911 (0x132F)
Format : MPEG Audio
Format version : Version 1
Format profile : Layer 2
Mode : Joint stereo
Mode extension : MS Stereo
Codec ID : 4
Duration : 24mn 32s
Bit rate mode : Constant
Bit rate : 160 Kbps
Channel count : 2 channels
Sampling rate : 48.0 KHz
Compression mode : Lossy
Delay relative to video : 13ms
Stream size : 28.1 MiB (1%)
Language : English
Language, more info : Clean effects
Audio #1923
ID : 1923 (0x783)
Menu ID : 4911 (0x132F)
Format : AC-3
Format/Info : Audio Coding 3
Mode extension : CM (complete main)
Format settings, Endianness : Big
Codec ID : 6
Duration : 24mn 32s
Bit rate mode : Constant
Bit rate : 448 Kbps
Channel count : 6 channels
Channel positions : Front: L C R, Side: L R, LFE
Sampling rate : 48.0 KHz
Bit depth : 16 bits
Compression mode : Lossy
Delay relative to video : 6ms
Stream size : 78.6 MiB (4%)
Language : German
Language, more info : Clean effects
y


Трекер:  [ 18-Фев-2014 10:13 ]

  

Скачать .torrent

Размер .torrent файла 102 KB


Размер: 20.07 GB
Хэш (hash) релиза: b441d628fa4692fbb8e82cd097a5007de98dc739
Подписка на обновления:

Еще никто не оставлял запись к записи скачать торрент XXII Зимние Олимпийские Игры 2014 Бобслей, Двойки . Будь первым!

!Обратная связь