Скачать через торрент XXII Зимние Олимпийские Игры 2014. Биатлон. Женщины. Масс-старт 12,5 км. НТВ+ Фильм бесплатно в хорошем качестве torrent

Скачивайте на UnionPeer.org фильмы через торрент без регистрации. Новинки кино в хорошем качестве через торрент. На UnionPeer.org можно скачать через торрент фильмы 2014 и 2015 годов. Самые новые фильмы.

Скачать торрент XXII Зимние Олимпийские Игры 2014. Биатлон. Женщины. Масс-старт 12,5 км. НТВ+ бесплатно через .torrent фильм мультфильм сериал

Если у вас наблюдаются проблемы со скриншотами, переходом по ссылками, скачиванием торрентов - проблемы в блокировщике рекламы AdBlock. #хорошегоДня!


Статистика раздачи
Размер:  6.38 GB   |    Зарегистрирован:  3 года 8 месяцев   |    .torrent скачан:  29 раз   |   
Раздают:  1   Качают:  1  
   
Загрузка...
 
Автор Сообщение

Galfimbul

avatar Galfimbul


XXII Зимние Олимпийские Игры 2014. Биатлон Женщины. Масс-старт 12,5 км. НТВ+

Вид спорта: Биатлон
Дата/Год выпуска: 17.02.14
Язык комментариев: русский

Автор записи: SashaR.

Качество: DVB-S2 Remux
Формат видео: TS
Видео: AVC, 1920x1080, 16:9, 12.6 Mbps, 25 fps
Аудио: MP2, 192 kbps, 48 kHz, 2 channels
Аудио: AC-3, 448 kbps, 48 kHz, 5 channels
G:\Олимпиада\Биатлон Женщины. Масс-старт 12,5 км (НТВ+).ts
General #6
ID : 6 (0x6)
Complete name : G:\Олимпиада\Биатлон Женщины. Масс-старт 12,5 км (НТВ+).ts
Format : MPEG-TS
File size : 6.38 GiB
Duration : 1h 5mn
Overall bit rate mode : Variable
Overall bit rate : 14.0 Mbps
Video #322
ID : 322 (0x142)
Menu ID : 12102 (0x2F46)
Format : AVC
Format/Info : Advanced Video Codec
Format profile : High@L4.0
Format settings, CABAC : Yes
Format settings, ReFrames : 3 frames
Codec ID : 27
Duration : 1h 5mn
Bit rate : 12.6 Mbps
Width : 1 920 pixels
Height : 1 080 pixels
Display aspect ratio : 16:9
Frame rate : 25.000 fps
Standard : Component
Color space : YUV
Chroma subsampling : 4:2:0
Bit depth : 8 bits
Scan type : Interlaced
Scan order : Top Field First
Bits/(Pixel*Frame) : 0.244
Stream size : 5.76 GiB (90%)
Color primaries : BT.709
Transfer characteristics : BT.709
Matrix coefficients : BT.709
Audio #402
ID : 402 (0x192)
Menu ID : 12102 (0x2F46)
Format : AC-3
Format/Info : Audio Coding 3
Mode extension : CM (complete main)
Format settings, Endianness : Big
Codec ID : 6
Duration : 1h 5mn
Bit rate mode : Constant
Bit rate : 448 Kbps
Channel count : 5 channels
Channel positions : Front: L C R, Side: L R
Sampling rate : 48.0 KHz
Bit depth : 16 bits
Compression mode : Lossy
Delay relative to video : 34ms
Stream size : 209 MiB (3%)
Language : Russian
Language, more info : Clean effects
Audio #422
ID : 422 (0x1A6)
Menu ID : 12102 (0x2F46)
Format : MPEG Audio
Format version : Version 1
Format profile : Layer 2
Codec ID : 4
Duration : 1h 5mn
Bit rate mode : Constant
Bit rate : 192 Kbps
Channel count : 2 channels
Sampling rate : 48.0 KHz
Compression mode : Lossy
Delay relative to video : 117ms
Stream size : 89.6 MiB (1%)
Language : Russian
Language, more info : Clean effects
01:05:15


Трекер:  [ 17-Фев-2014 20:10 ]

  

Скачать .torrent

Размер .torrent файла 128 KB


Размер: 6.38 GB
Хэш (hash) релиза: 0f124a11471c0952baf696528c8ea03729dd2d24
Подписка на обновления:

Торренты, похожие на XXII Зимние Олимпийские Игры 2014. Биатлон. Женщины. Масс-старт 12,5 км. НТВ+ скачать торрент

Форум Название Автор Размер S L Добавлен
Зимние Олимпийские игры в Сочи 2014 ·· XXII Зимние Олимпийские Игры 2014 / Биатлон / Масс-старт 12,5 км / Женщины / НТВ+ [17.02.2014, Биатлон, MPEG, DVB] Galfimbul 26374656002.46 GB 0 0 1393018174

00:29

22-Фев-14

Еще никто не оставлял запись к записи скачать торрент XXII Зимние Олимпийские Игры 2014. Биатлон. Женщины. Масс-старт 12,5 км. НТВ+ . Будь первым!

!Обратная связь