Скачать через торрент XXII Зимние Олимпийские Игры 2014. Кёрлинг. Круговой этап. Сессия 10. Женщины. Россия - Швеция Фильм бесплатно в хорошем качестве torrent

Скачивайте на UnionPeer.org фильмы через торрент без регистрации. Новинки кино в хорошем качестве через торрент. На UnionPeer.org можно скачать через торрент фильмы 2014 и 2015 годов. Самые новые фильмы.

Скачать торрент XXII Зимние Олимпийские Игры 2014. Кёрлинг. Круговой этап. Сессия 10. Женщины. Россия - Швеция бесплатно через .torrent фильм мультфильм сериал

Если у вас наблюдаются проблемы со скриншотами, переходом по ссылками, скачиванием торрентов - проблемы в блокировщике рекламы AdBlock. #хорошегоДня!


Статистика раздачи
Размер:  2.12 GB   |    Зарегистрирован:  3 года 8 месяцев   |    .torrent скачан:  35 раз   |   
Раздают:  1  
   
Загрузка...
 
Автор Сообщение

Galfimbul

avatar Galfimbul


XXII Зимние Олимпийские Игры 2014. Кёрлинг. Круговой этап. Сессия 10. Женщины. Россия - Швеция

Вид спорта: Кёрлинг
Дата/Год выпуска: 16.02.2014
Язык комментариев: Русский (Роман Трушечкин)
Описание: XXII Зимние Олимпийские Игры 2014. Кёрлинг. Круговой этап. Сессия 10. Женщины. Россия - Швеция.

Автор рипа/записи: Андрей450
Доп. информация: Запись сделана с канала

Качество: SATRip
Формат видео: AVI
Видео: MPEG-4 Visual (H263) 768x576 (4:3) 25.00fps ~3500 kbps
Аудио: MPEG Audio Layer 3 48000Hz stereo 128kbps
2h 15mn
General
Complete name : E:\FFOutput\Кёрлинг (Андрей450).avi
Format : AVI
Format/Info : Audio Video Interleave
Format profile : OpenDML
File size : 2.12 GiB
Duration : 2h 15mn
Overall bit rate : 2 242 Kbps
Writing application : MEncoder SVN-r33883(20110719-gcc4.5.2)
Writing library : MPlayer

Video
ID : 0
Format : MPEG-4 Visual
Format profile : Advanced Simple@L5
Format settings, BVOP : 2
Format settings, QPel : No
Format settings, GMC : No warppoints
Format settings, Matrix : Default (H.263)
Codec ID : XVID
Codec ID/Hint : XviD
Duration : 2h 15mn
Bit rate : 2 102 Kbps
Width : 768 pixels
Height : 576 pixels
Display aspect ratio : 4:3
Frame rate : 25.000 fps
Color space : YUV
Chroma subsampling : 4:2:0
Bit depth : 8 bits
Scan type : Progressive
Compression mode : Lossy
Bits/(Pixel*Frame) : 0.190
Stream size : 1.98 GiB (94%)
Writing library : XviD 1.2.1 (UTC 2008-12-04)

Audio
ID : 1
Format : MPEG Audio
Format version : Version 1
Format profile : Layer 3
Mode : Joint stereo
Mode extension : MS Stereo
Codec ID : 55
Codec ID/Hint : MP3
Duration : 2h 15mn
Bit rate mode : Constant
Bit rate : 128 Kbps
Channel(s) : 2 channels
Sampling rate : 44.1 KHz
Compression mode : Lossy
Delay relative to video : 40ms
Stream size : 124 MiB (6%)
Alignment : Aligned on interleaves
Interleave, duration : 26 ms (0.65 video frame)
Interleave, preload duration : 522 ms


Трекер:  [ 16-Фев-2014 22:34 ]

  

Скачать .torrent

Размер .torrent файла 11 KB


Размер: 2.12 GB
Хэш (hash) релиза: 7c5a2e5a4a7ffd7fbd6939b3270e56586420271c
Подписка на обновления:

Торренты, похожие на XXII Зимние Олимпийские Игры 2014. Кёрлинг. Круговой этап. Сессия 10. Женщины. Россия - Швеция скачать торрент

Форум Название Автор Размер S L Добавлен
Зимние Олимпийские игры в Сочи 2014 ·· XXII Зимние Олимпийские Игры 2014. Кёрлинг. Круговой этап. Сессия 10. Женщины. Россия - Швеция / Первый Канал [16.02.2014 г., Кёрлинг, DVB, MPEG] Galfimbul 19638599681.83 GB 0 0 1392562590

17:56

16-Фев-14

Зимние Олимпийские игры в Сочи 2014 ·· XXII Зимние Олимпийские Игры 2014. Кёрлинг. Круговой этап. Сессия 10. Женщины. Россия - Швеция. НТВ+ [16.02.14, Кёрлинг, HDTV] Galfimbul 1673941697615.59 GB 0 0 1392623232

10:47

17-Фев-14

Еще никто не оставлял запись к записи скачать торрент XXII Зимние Олимпийские Игры 2014. Кёрлинг. Круговой этап. Сессия 10. Женщины. Россия - Швеция . Будь первым!

!Обратная связь