Скачать через торрент XXII Зимние Олимпийские Игры 2014 Хоккей Фильм бесплатно в хорошем качестве torrent

Скачивайте на UnionPeer.org фильмы через торрент без регистрации. Новинки кино в хорошем качестве через торрент. На UnionPeer.org можно скачать через торрент фильмы 2014 и 2015 годов. Самые новые фильмы.

Скачать торрент XXII Зимние Олимпийские Игры 2014 Хоккей бесплатно через .torrent фильм мультфильм сериал

Если у вас наблюдаются проблемы со скриншотами, переходом по ссылками, скачиванием торрентов - проблемы в блокировщике рекламы AdBlock. #хорошегоДня!


Статистика раздачи
Размер:  5.65 GB   |    Зарегистрирован:  3 года 8 месяцев   |    .torrent скачан:  36 раз   |   
Раздают:  1  
   
Загрузка...
 
Автор Сообщение

Galfimbul

avatar Galfimbul


XXII Зимние Олимпийские Игры 2014 / Хоккей / Мужчины / Группа А / Россия - Словакия / ČT Sport HD

Вид спорта: Хоккей
Дата/Год выпуска: 16.02.2014
Язык комментариев: Чешский (čeština)
Комментаторы: Robert Záruba, David Pospíšil

Описание: Сочи (Россия). Стадион Большой. Группа A. 3-й тур 16 февраля 2014 года, воскресенье. 16:30 мск Главный судья: Ларс Брюггеман (Германия) ; Келли Сазерлэнд (Ричмонд, Канада)


Качество: HDTV
Формат: TS
Видео кодек: AVC
Аудио кодек: MP2
Видео: H.264 (High@L4.0); 1920x1080 (16:9); 25.000 fps; ~7000 kbps
Аудио: Чешский, 48000 Hz; 192 kbps; Stereo; 2 channels
General
ID : 3205 (0xC85)
Format : MPEG-TS
File size : 5.65 GiB
Duration : 1h 53mn
Overall bit rate mode : Variable
Overall bit rate : 7 130 Kbps

Video
ID : 2019 (0x7E3)
Menu ID : 5039 (0x13AF)
Format : AVC
Format/Info : Advanced Video Codec
Format profile : Main@L4.0
Format settings, CABAC : Yes
Format settings, ReFrames : 4 frames
Codec ID : 27
Duration : 1h 53mn
Bit rate : 6 584 Kbps
Width : 1 920 pixels
Height : 1 080 pixels
Display aspect ratio : 16:9
Frame rate : 25.000 fps
Standard : Component
Color space : YUV
Chroma subsampling : 4:2:0
Bit depth : 8 bits
Scan type : Interlaced
Scan order : Top Field First
Bits/(Pixel*Frame) : 0.127
Stream size : 5.21 GiB (92%)
Color primaries : BT.709
Transfer characteristics : BT.709
Matrix coefficients : BT.709

Audio
ID : 2029 (0x7ED)
Menu ID : 5039 (0x13AF)
Format : MPEG Audio
Format version : Version 1
Format profile : Layer 2
Codec ID : 4
Duration : 1h 53mn
Bit rate mode : Constant
Bit rate : 192 Kbps
Channel(s) : 2 channels
Sampling rate : 48.0 KHz
Compression mode : Lossy
Delay relative to video : -2ms
Stream size : 156 MiB (3%)
Language : Czech
01:53:23
1(Б):0


Трекер:  [ 16-Фев-2014 20:32 ]

  

Скачать .torrent

Размер .torrent файла 28 KB


Размер: 5.65 GB
Хэш (hash) релиза: 818f45f235918b5866c08405d66c26f1bd0568b5
Подписка на обновления:

Еще никто не оставлял запись к записи скачать торрент XXII Зимние Олимпийские Игры 2014 Хоккей . Будь первым!

!Обратная связь