Скачать через торрент Олимпийские Вершины. Биатлон Первый Канал HD Фильм бесплатно в хорошем качестве torrent

Скачивайте на UnionPeer.org фильмы через торрент без регистрации. Новинки кино в хорошем качестве через торрент. На UnionPeer.org можно скачать через торрент фильмы 2014 и 2015 годов. Самые новые фильмы.

Скачать торрент Олимпийские Вершины. Биатлон Первый Канал HD бесплатно через .torrent фильм мультфильм сериал

Если у вас наблюдаются проблемы со скриншотами, переходом по ссылками, скачиванием торрентов - проблемы в блокировщике рекламы AdBlock. #хорошегоДня!


Статистика раздачи
Размер:  1.69 GB   |    Зарегистрирован:  3 года 8 месяцев   |    .torrent скачан:  36 раз   |   
Раздают:  1  
   
Загрузка...
 
Автор Сообщение

Galfimbul

avatar Galfimbul


Олимпийские Вершины. Биатлон

Вид спорта: Биатлон
Комментарий: Профессиональный
Язык комментариев: Русский
Продолжительность: 00:50:00

Описание: Биатлон – один из самых зрелищных видов спорта, входящих в программу зимних Олимпийских игр.

Биатлон полностью захватывает болельщиков, они словно бегут вместе со своими кумирами по трассе, затаив дыхание, стреляют по мишеням. Эмоций в этом виде спорта – хоть отбавляй. Но чтобы до конца понять мир биатлона, нужно окунуться в него.

Зрители увидят самые яркие, самые драматичные моменты предыдущих олимпийских гонок, побывают на тренировках сборной России по биатлону, узнают, как шли к своим олимпийским вершинам и чем занимаются сейчас наши прославленные олимпийские чемпионы: лучший биатлонист ХХ века Александр Тихонов, отец и сын Кругловы, Ольга Пылeва-Медведцева, Ольга Зайцева, Евгений Устюгов. У каждой их олимпийской медали – своя непростая история. Но ни один из них не жалеет о том, чем пришлось пожертвовать ради победы.

Ведущая цикла "Олимпийские вершины" Татьяна Навка расскажет, в чем специфика биатлона, почему его считают одним из самых сложных зимних видов спорта. Она сама проедет на лыжах по олимпийской трассе в Сочи, одной из самых трудных в мире, со множеством затяжных подъемов и спусков, где у спортсменов нет возможности даже немного передохнуть.

В фильме участвуют: Александр Тихонов, Николай Круглов-старший и Николай Круглов-младший, Ольга и Валерий Медведцевы, Ольга Зайцева, Дмитрий Малышко, Антон Шипулин, Уле-Эйнар Бьeрндален, Евгений Устюгов.

Автор рипа: Riper AM

Качество: HDTV
Формат: MPEG-TS
Видео кодек: AVC
Аудио кодек: MP2
Видео: MPEG4 Video (H264) 1920x1080 4000kbps 25fps
Аудио: Dolby AC3 48000Hz 6ch 384kbps
GeneralID : 1 (0x1)Complete name : E:\Олимпиада 2014\Olimpiyskie.Vershiny-Biatlon.HDTVRip.riper.am.tsFormat : MPEG-TSFile size : 1.69 GiBDuration : 49mn 59sOverall bit rate mode : VariableOverall bit rate : 4 845 Kbps

VideoID : 845 (0x34D)Menu ID : 1 (0x1)Format : AVCFormat/Info : Advanced Video CodecFormat profile : High@L4.0Format settings, CABAC : YesFormat settings, ReFrames : 4 framesCodec ID : 27Duration : 49mn 59sBit rate : 4 218 KbpsWidth : 1 920 pixelsHeight : 1 080 pixelsDisplay aspect ratio : 16:9Frame rate : 25.000 fpsColor space : YUVChroma subsampling : 4:2:0Bit depth : 8 bitsScan type : InterlacedScan order : Top Field FirstBits/(Pixel*Frame) : 0.081Stream size : 1.47 GiB (87%)Color primaries : BT.709Transfer characteristics : BT.709Matrix coefficients : BT.709

AudioID : 985 (0x3D9)Menu ID : 1 (0x1)Format : AC-3Format/Info : Audio Coding 3Mode extension : CM (complete main)Format settings, Endianness : BigCodec ID : 6Duration : 49mn 59sBit rate mode : ConstantBit rate : 384 KbpsChannel(s) : 6 channelsChannel positions : Front: L C R, Side: L R, LFESampling rate : 48.0 KHzBit depth : 16 bitsCompression mode : LossyStream size : 137 MiB (8%)Language : English


Трекер:  [ 16-Фев-2014 17:56 ]

  

Скачать .torrent

Размер .torrent файла 17 KB


Размер: 1.69 GB
Хэш (hash) релиза: 67f60bab16ac2adc8809cff36c5d12322fcc6be3
Подписка на обновления:

Торренты, похожие на Олимпийские Вершины. Биатлон Первый Канал HD скачать торрент

Форум Название Автор Размер S L Добавлен
Зимние Олимпийские игры в Сочи 2014 ·· Олимпийские Вершины. Биатлон / Первый Канал HD [16.02.2014 г., Биатлон, Документальный, HDTVRip, XviD, 400p] Galfimbul 613914624585 MB 0 0 1392921047

21:30

20-Фев-14

Зимние Олимпийские игры в Сочи 2014 ·· Олимпийские Вершины. Биатлон / Первый Канал HD [16.02.2014 г., Биатлон, Документальный, HDTV, 1080i] Galfimbul 54387742005.07 GB 0 0 1392921036

21:30

20-Фев-14

Еще никто не оставлял запись к записи скачать торрент Олимпийские Вершины. Биатлон Первый Канал HD . Будь первым!

!Обратная связь