Скачать через торрент Олимпийские Вершины. Хоккей Первый Канал HD Фильм бесплатно в хорошем качестве torrent

Скачивайте на UnionPeer.org фильмы через торрент без регистрации. Новинки кино в хорошем качестве через торрент. На UnionPeer.org можно скачать через торрент фильмы 2014 и 2015 годов. Самые новые фильмы.

Скачать торрент Олимпийские Вершины. Хоккей Первый Канал HD бесплатно через .torrent фильм мультфильм сериал

Если у вас наблюдаются проблемы со скриншотами, переходом по ссылками, скачиванием торрентов - проблемы в блокировщике рекламы AdBlock. #хорошегоДня!


Статистика раздачи
Размер:  4.93 GB   |    Зарегистрирован:  3 года 8 месяцев   |    .torrent скачан:  45 раз   |   
Раздают:  1  
   
Загрузка...
 
Автор Сообщение

Galfimbul

avatar Galfimbul


Олимпийские Вершины. Хоккей

Вид спорта: Хоккей
Комментарий: Профессиональный
Язык комментариев: Русский
Продолжительность: 00:50:00

Описание: Имена российских хоккеистов знает весь мир: Овечкин, Ковальчук, Харламов, Третьяк, Майоров, Фетисов. Наши хоккеисты господствовали на чемпионатах мира и Олимпийских играх десятилетиями.

Ведущая цикла "Олимпийские вершины" Татьяна Навка: "Хоккей – самая народная игра. Не в том смысле, что все в него играют. Хотя мы, например, после ледового шоу, когда зрители разошлись, иногда с фигуристами выходим на лед с клюшками. Я даже голы забиваю".

Хоккей у нас в стране всегда был больше чем игра. Героев мировых турниров встречали, как первых космонавтов. Но последнее олимпийское золото было взято в Альбервилле в 1992 году.

Уже выросло поколение, которое не видело олимпийских побед в хоккее. В 2008 году, на чемпионате мира мы вернули себе звание сильнейшей хоккейной сборной. Во всeм мире заговорили о возвращении "красной машины". Мы расскажем историю наших побед, уникальные подробности матчей, участники вспомнят моменты, известные только им, а также расскажут, что осталось вне поля зрения любителей хоккея.

Анатолий Владимирович Тарасов. "Британская энциклопедия" называет его отцом русского хоккея. Вместе с Аркадием Чернышевым они создали ту самую "красную машину", которая десяток лет громила соперников на всех международных турнирах.

Знаменитая тройка Михайлов-Петров-Харламов. Для фанатов хоккея в семидесятых это звучало как одна фамилия.
Валерий Харламов. Он стал легендой еще при жизни. Легендой №17. Под этим номером на форме его узнал весь мир, когда в 1972 года сборная СССР разгромила канадских профессионалов из НХЛ в знаменитой суперсерии СССР-Канада. Это была настоящая битва, которая перевернула мировое представление о хоккее…
В фильме использована уникальная хроника всех зимних Олимпийских игр с участием нашей сборной.

В фильме принимают участие: Владислав Третьяк, Вячеслав Фетисов, Илья Ковальчук, Александр Овечкин, Александр Якушев, Борис Михайлов, Виталий Давыдов, Алексей Касатонов Вячеслав Буцаев, Виталий Прохоров и др.

Автор рипа: sanchez2011

Качество: HDTV
Формат: MPEG-TS
Видео кодек: AVC
Аудио кодек: MP2
Видео: MPEG4 Video (H264) 1920x1080 13.2Mbps 25fps
Аудио: MPEG Audio 48000Hz stereo 192kbps
GeneralID : 1 (0x1)Complete name : E:\Олимпиада 2014\Олимпийские Вершины. Хоккей.tsFormat : MPEG-TSFile size : 4.93 GiBDuration : 49mn 59sOverall bit rate mode : VariableOverall bit rate : 14.1 Mbps

VideoID : 2141 (0x85D)Menu ID : 1 (0x1)Format : AVCFormat/Info : Advanced Video CodecFormat profile : Main@L4.0Format settings, CABAC : YesFormat settings, ReFrames : 3 framesCodec ID : 27Duration : 49mn 59sBit rate : 13.2 MbpsWidth : 1 920 pixelsHeight : 1 080 pixelsDisplay aspect ratio : 16:9Frame rate : 25.000 fpsStandard : ComponentColor space : YUVChroma subsampling : 4:2:0Bit depth : 8 bitsScan type : InterlacedScan order : Top Field FirstBits/(Pixel*Frame) : 0.255Stream size : 4.62 GiB (94%)Color primaries : BT.709Transfer characteristics : BT.709Matrix coefficients : BT.709

AudioID : 2142 (0x85E)Menu ID : 1 (0x1)Format : MPEG AudioFormat version : Version 1Format profile : Layer 2Codec ID : 3Duration : 49mn 59sBit rate mode : ConstantBit rate : 192 KbpsChannel(s) : 2 channelsSampling rate : 48.0 KHzCompression mode : LossyStream size : 68.7 MiB (1%)Language : Russian


Трекер:  [ 16-Фев-2014 13:28 ]

  

Скачать .torrent

Размер .torrent файла 25 KB


Размер: 4.93 GB
Хэш (hash) релиза: fa73eea7bbfdba8649980c033930ae5df91b18ee
Подписка на обновления:

Торренты, похожие на Олимпийские Вершины. Хоккей Первый Канал HD скачать торрент

Форум Название Автор Размер S L Добавлен
Зимние Олимпийские игры в Сочи 2014 ·· Олимпийские Вершины. Хоккей / Первый Канал HD [16.02.2014 г., Хоккей, Документальный, HDTVRip, MKV, 400p] Galfimbul 617488050589 MB 0 0 1392550372

14:32

16-Фев-14

Зимние Олимпийские игры в Сочи 2014 ·· Олимпийские Вершины. Фигурное катание / Первый Канал HD [22.02.2014 г., Хоккей, Документальный, HDTVRip, MKV, 400p] Galfimbul 471830692450 MB 0 0 1393095382

21:56

22-Фев-14

Еще никто не оставлял запись к записи скачать торрент Олимпийские Вершины. Хоккей Первый Канал HD . Будь первым!

!Обратная связь