Скачать через торрент XXII Зимние Олимпийские Игры 2014 Хоккей Фильм бесплатно в хорошем качестве torrent

Скачивайте на UnionPeer.org фильмы через торрент без регистрации. Новинки кино в хорошем качестве через торрент. На UnionPeer.org можно скачать через торрент фильмы 2014 и 2015 годов. Самые новые фильмы.

Скачать торрент XXII Зимние Олимпийские Игры 2014 Хоккей бесплатно через .torrent фильм мультфильм сериал

Если у вас наблюдаются проблемы со скриншотами, переходом по ссылками, скачиванием торрентов - проблемы в блокировщике рекламы AdBlock. #хорошегоДня!


Статистика раздачи
Размер:  12.07 GB   |    Зарегистрирован:  3 года 8 месяцев   |    .torrent скачан:  44 раза   |   
Раздают:  1  
   
Загрузка...
 
Автор Сообщение

Galfimbul

avatar Galfimbul


XXII Зимние Олимпийские Игры 2014 / Хоккей / Плей-офф / Четвертьфинал / Женщины / Швейцария - Россия

Вид спорта: Хоккей
Дата/Год выпуска: 15.02.14
Язык комментариев: русский

Автор записи: SashaR.

Качество: DVB-S2 Remux
Формат видео: TS
Видео: AVC, 1920x1080, 16:9, 15.2 Mbps, 25 fps
Аудио: MP2, 192 kbps, 48 kHz, 2 channels
G:\Олимпиада\Хоккей. Плей-офф. Четвертьфинал. Женщины. Швейцария - Россия (НТВ+).ts
General #6
ID : 6 (0x6)
Complete name : G:\Олимпиада\Хоккей. Плей-офф. Четвертьфинал. Женщины. Швейцария - Россия (НТВ+).ts
Format : MPEG-TS
File size : 12.1 GiB
Duration : 1h 46mn
Overall bit rate : 16.2 Mbps
Video #301
ID : 301 (0x12D)
Menu ID : 17101 (0x42CD)
Format : AVC
Format/Info : Advanced Video Codec
Codec ID : 27
Duration : 1h 46mn
Bit rate : 15.2 Mbps
Stream size : 11.3 GiB (94%)
Audio #401
ID : 401 (0x191)
Menu ID : 17101 (0x42CD)
Format : MPEG Audio
Format version : Version 1
Format profile : Layer 2
Codec ID : 4
Duration : 48ms
Bit rate mode : Constant
Bit rate : 192 Kbps
Channel count : 2 channels
Sampling rate : 48.0 KHz
Compression mode : Lossy
Stream size : 1.13 KiB (0%)
Language : Russian
Language, more info : Clean effects
01:46:40


Трекер:  [ 16-Фев-2014 09:50 ]

  

Скачать .torrent

Размер .torrent файла 121 KB


Размер: 12.07 GB
Хэш (hash) релиза: 272745523191a047f5950b94d43214ce194b1459
Подписка на обновления:

Еще никто не оставлял запись к записи скачать торрент XXII Зимние Олимпийские Игры 2014 Хоккей . Будь первым!

!Обратная связь