Скачать через торрент XXII Зимние Олимпийские Игры 2014. Кёрлинг. Круговой этап. 9-й тур. Женщины. Канада - Россия Первый Канал HD Фильм бесплатно в хорошем качестве torrent

Скачивайте на UnionPeer.org фильмы через торрент без регистрации. Новинки кино в хорошем качестве через торрент. На UnionPeer.org можно скачать через торрент фильмы 2014 и 2015 годов. Самые новые фильмы.

Скачать торрент XXII Зимние Олимпийские Игры 2014. Кёрлинг. Круговой этап. 9-й тур. Женщины. Канада - Россия Первый Канал HD бесплатно через .torrent фильм мультфильм сериал

Если у вас наблюдаются проблемы со скриншотами, переходом по ссылками, скачиванием торрентов - проблемы в блокировщике рекламы AdBlock. #хорошегоДня!


Статистика раздачи
Размер:  7.35 GB   |    Зарегистрирован:  3 года 7 месяцев   |    .torrent скачан:  38 раз   |   
Раздают:  1  
   
Загрузка...
 
Автор Сообщение

Galfimbul

avatar Galfimbul


XXII Зимние Олимпийские Игры 2014. Кёрлинг. Круговой этап. 9-й тур.
Женщины. Канада - Россия
Дата: 15.02.2014
Вид спорта: Кёрлинг
Продолжительность: 01:52:24
Язык комментариев: Русский

трансляция началась со второго энда.

Автор записи: SLuMeP

Качество: HDTV
Формат: TS
Видео: H264; 1920x1080 (16:9); 25.000 fps; 8500 kbps
Аудио: RUS; AC-3; 48 KHz; 384 kbps; Stereo; 6 channels
G:\XXII Зимние Олимпийские Игры 2014. Кёрлинг. Канада - Россия (2014)_DVB by SLuMeP.ts
General #1
ID : 1 (0x1)
Complete name : G:\XXII Зимние Олимпийские Игры 2014. Кёрлинг. Канада - Россия (2014)_DVB by SLuMeP.ts
Format : MPEG-TS
File size : 7.35 GiB
Duration : 1h 52mn
Overall bit rate mode : Variable
Overall bit rate : 9 359 Kbps
Maximum Overall bit rate : 35.5 Mbps

Video #4113
ID : 4113 (0x1011)
Menu ID : 1 (0x1)
Format : AVC
Format/Info : Advanced Video Codec
Format profile : High@L4.0
Format settings, CABAC : Yes
Format settings, ReFrames : 3 frames
Format settings, GOP : M=4, N=28
Codec ID : 27
Duration : 1h 52mn
Bit rate mode : Variable
Bit rate : 8 509 Kbps
Maximum bit rate : 40.0 Mbps
Width : 1 920 pixels
Height : 1 080 pixels
Display aspect ratio : 16:9
Frame rate : 25.000 fps
Standard : Component
Color space : YUV
Chroma subsampling : 4:2:0
Bit depth : 8 bits
Scan type : Interlaced
Scan order : Top Field First
Bits/(Pixel*Frame) : 0.164
Stream size : 6.68 GiB (91%)
Color primaries : BT.709-5, BT.1361, IEC 61966-2-4, SMPTE RP177
Transfer characteristics : BT.709-5, BT.1361
Matrix coefficients : BT.709-5, BT.1361, IEC 61966-2-4 709, SMPTE RP177

Audio #4352
ID : 4352 (0x1100)
Menu ID : 1 (0x1)
Format : AC-3
Format/Info : Audio Coding 3
Mode extension : CM (complete main)
Codec ID : 129
Duration : 1h 52mn
Bit rate mode : Constant
Bit rate : 384 Kbps
Channel(s) : 6 channels
Channel positions : Front: L C R, Side: L R, LFE
Sampling rate : 48.0 KHz
Bit depth : 16 bits
Compression mode : Lossy
Stream size : 309 MiB (4%)
Language : Russian


Трекер:  [ 15-Фев-2014 22:46 ]

  

Скачать .torrent

Размер .torrent файла 37 KB


Размер: 7.35 GB
Хэш (hash) релиза: 63a1cd1d8e46600ab54da11ee62fc036cbb37cc4
Подписка на обновления:

Еще никто не оставлял запись к записи скачать торрент XXII Зимние Олимпийские Игры 2014. Кёрлинг. Круговой этап. 9-й тур. Женщины. Канада - Россия Первый Канал HD . Будь первым!

!Обратная связь