Скачать через торрент XXII Зимние Олимпийские Игры 2014. Лыжный спорт. Женщины. Эстафета 4x5 км Россия 1 Фильм бесплатно в хорошем качестве torrent

Скачивайте на UnionPeer.org фильмы через торрент без регистрации. Новинки кино в хорошем качестве через торрент. На UnionPeer.org можно скачать через торрент фильмы 2014 и 2015 годов. Самые новые фильмы.

Скачать торрент XXII Зимние Олимпийские Игры 2014. Лыжный спорт. Женщины. Эстафета 4x5 км Россия 1 бесплатно через .torrent фильм мультфильм сериал

Если у вас наблюдаются проблемы со скриншотами, переходом по ссылками, скачиванием торрентов - проблемы в блокировщике рекламы AdBlock. #хорошегоДня!


Статистика раздачи
Размер:  1.96 GB   |    Зарегистрирован:  3 года 7 месяцев   |    .torrent скачан:  42 раза   |   
Раздают:  1  
   
Загрузка...
 
Автор Сообщение

Galfimbul

avatar Galfimbul


XXII Зимние Олимпийские Игры 2014. Лыжный спорт. Женщины. Эстафета 4x5 км

Вид спорта: Лыжные гонки
Комментарий: Профессиональный
Язык комментариев: Русский (Дмитрий Губерниев)
Описание: XXII Зимние Олимпийские Игры 2014. Лыжный спорт. Женщины. Эстафета 4x5 км.
Автор рипа: sanchez2011
Качество: DVB
Формат: MPEG-PS
Видео кодек: MPEG2
Аудио кодек: MP2
Видео: MPEG2 Video 720x576 (16:9) 25fps 4000kbps
Аудио: MPEG Audio 48000Hz stereo 192kbps
Все результаты соревнований

Продолжительность: 01:04:40
GeneralComplete name : E:\Олимпиада 2014\XXII Зимние Олимпийские Игры 2014. 15.02.2014 Лыжный спорт. Женщины. Эстафета 4x5 км.mpgFormat : MPEG-PSFile size : 1.96 GiBDuration : 1h 4mnOverall bit rate mode : VariableOverall bit rate : 4 332 Kbps

VideoID : 224 (0xE0)Format : MPEG VideoFormat version : Version 2Format profile : Main@MainFormat settings, BVOP : YesFormat settings, Matrix : CustomFormat settings, GOP : VariableDuration : 1h 4mnBit rate mode : VariableBit rate : 4 054 KbpsMaximum bit rate : 15.0 MbpsWidth : 720 pixelsHeight : 576 pixelsDisplay aspect ratio : 4:3Frame rate : 25.000 fpsStandard : PALColor space : YUVChroma subsampling : 4:2:0Bit depth : 8 bitsScan type : InterlacedScan order : Top Field FirstCompression mode : LossyBits/(Pixel*Frame) : 0.391Time code of first frame : 00:00:00:00Time code source : Group of pictures headerStream size : 1.83 GiB (94%)

AudioID : 192 (0xC0)Format : MPEG AudioFormat version : Version 1Format profile : Layer 2Duration : 1h 4mnBit rate mode : ConstantBit rate : 192 KbpsChannel(s) : 2 channelsSampling rate : 48.0 KHzCompression mode : LossyStream size : 88.8 MiB (4%)


Трекер:  [ 15-Фев-2014 20:48 ]

  

Скачать .torrent

Размер .torrent файла 20 KB


Размер: 1.96 GB
Хэш (hash) релиза: 15569402cbfff4775d158fb0ff385b5e9cc275e8
Подписка на обновления:

Еще никто не оставлял запись к записи скачать торрент XXII Зимние Олимпийские Игры 2014. Лыжный спорт. Женщины. Эстафета 4x5 км Россия 1 . Будь первым!

!Обратная связь