Скачать через торрент XXII Зимние Олимпийские Игры 2014 Хоккей Фильм бесплатно в хорошем качестве torrent

Скачивайте на UnionPeer.org фильмы через торрент без регистрации. Новинки кино в хорошем качестве через торрент. На UnionPeer.org можно скачать через торрент фильмы 2014 и 2015 годов. Самые новые фильмы.

Скачать торрент XXII Зимние Олимпийские Игры 2014 Хоккей бесплатно через .torrent фильм мультфильм сериал

Если у вас наблюдаются проблемы со скриншотами, переходом по ссылками, скачиванием торрентов - проблемы в блокировщике рекламы AdBlock. #хорошегоДня!


Статистика раздачи
Размер:  4.23 GB   |    Зарегистрирован:  3 года 8 месяцев   |    .torrent скачан:  40 раз   |   
Раздают:  1  
   
Загрузка...
 
Автор Сообщение

Galfimbul

avatar Galfimbul


XXII Зимние Олимпийские Игры 2014 / Хоккей / Предварительный раунд / Мужчины / Группа А / США - Россия

Вид спорта: Хоккей
Участники: Россия - США
Дата/Год выпуска: 15.02.2014
Язык комментариев: Русский (Комментаторы: Андрей Голованов и Виктор Гусев)
Описание: Олимпиада 2014
15 февраля 2014 года, Суббота. 16:30
Хоккей. Арена: Большой (Сочи, Россия)
Мужчины. Группа A. 1-й тур: Россия - США

Автор рипа/записи: Doc66
Качество: DVB
Формат видео: MPEG-2
Видео: MPEG Video at 3957 Кбит/сек Aspect : 720 x 576 (1.778) at 25.000 fps
Аудио: MPEG Audio at 192 Кбит/сек Infos : 2 канала, 48,0 КГц
02:22:57
Общее
Полное имя : E:\MPEG\15.02.2014.Хоккей.Группа A.США-Россия.Первый Канал.DVB.Doc66.mpg
Формат : MPEG-PS
Размер файла : 4,23 Гбайт
Продолжительность : 2 ч. 22 м.
Режим общего битрейта : Переменный
Общий поток : 4233 Кбит/сек

Видео
Идентификатор : 224 (0xE0)
Формат : MPEG Video
Версия формата : Version 2
Профиль формата : Main@Main
Параметр BVOP формата : Да
Параметр матрицы формата : Выборочная
Параметр GOP формата : Variable
Продолжительность : 2 ч. 22 м.
Вид битрейта : Переменный
Битрейт : 3957 Кбит/сек
Максимальный битрейт : 15,0 Мбит/сек
Ширина : 720 пикселей
Высота : 576 пикселей
Соотношение сторон : 16:9
Частота кадров : 25,000 кадров/сек
Стандарт вещания : PAL
Цветовое пространство : YUV
Субдискретизация насыщенности : 4:2:0
Битовая глубина : 8 бит
Тип развёртки : Чересстрочная
Порядок развёртки : Верхнее поле первое
Метод сжатия : С потерями
Бит/(Пиксели*Кадры) : 0.382
Временной код первого кадра : 00:00:00:00
Оригинал временного кода : Group of pictures header
Размер потока : 3,95 Гбайт (93%)

Аудио
Идентификатор : 192 (0xC0)
Формат : MPEG Audio
Версия формата : Version 1
Профиль формата : Layer 2
Продолжительность : 2 ч. 22 м.
Вид битрейта : Постоянный
Битрейт : 192 Кбит/сек
Каналы : 2 канала
Частота : 48,0 КГц
Метод сжатия : С потерями
Размер потока : 196 Мбайт (5%)


Трекер:  [ 15-Фев-2014 19:24 ]

  

Скачать .torrent

Размер .torrent файла 21 KB


Размер: 4.23 GB
Хэш (hash) релиза: c7607da71bb81211490f9a96ebcf7d87f5e4b263
Подписка на обновления:

Еще никто не оставлял запись к записи скачать торрент XXII Зимние Олимпийские Игры 2014 Хоккей . Будь первым!

!Обратная связь