Скачать через торрент Члены Школьного совета 2 Seitokai Yakuindomo 2 бесплатно Аниме Все серии на русском torrent

Если у вас наблюдаются проблемы со скриншотами, переходом по ссылками, скачиванием торрентов - проблемы в блокировщике рекламы AdBlock. #хорошегоДня!


Статистика раздачи
Размер:  2.26 GB   |    Зарегистрирован:  3 года 7 месяцев   |    .torrent скачан:  35 раз   |   
Раздают:  1  
   
Загрузка...
 
Автор Сообщение

Polarnik

avatar Polarnik


Члены Школьного совета 2 / Seitokai Yakuindomo 2
Страна: Япония
Год выпуска: 2014 г.
Жанр: комедия, школа, пародия
Тип: TV
Продолжительность: 25 мин.

Режиссер: Канадзава Хиромицу
Студия: GoHands

Описание:
Даже благополучную Японию не миновал демографический кризис! В итоге правительство приняло новый курс, и вот частная академия Осай, женская школа со старинными традициями, переходит на совместное обучение. В первый год эксперимента соотношение парней и девушек едва достигло 1:18, что в полной мере почувствовал Такатоси Цуда, соблазнившийся тем, что новая школа совсем рядом с домом. По закону жанра, свежеизбранный президент школьного совета Сина Амакаса как раз решила ввести в состав представителя местного гендерного меньшинства. Цуда попался под руку – так все и случилось.

Теперь главный герой трудится на благо академии вместе с тремя другими членами совета – прямодушной, но слегка закомплексованной Синой, опасной шутницей Арией и вспыльчивой гением-коротышкой Судзу. Поняв, что новичок – парень не злой и спокойный, коллеги перестали стесняться и дали ему узнать, «о чем говорят женщины», к тому же имеющие о мужском поле весьма своеобразные представления. Только твердый характер и опыт жизни с младшей сестренкой позволяют бедняге Такатоси сохранить душевное здоровье среди будней школьного совета, когда с прелестных губок иногда срывается такое, что хоть стой, хоть падай. А еще жаль, что интерес трех девушек к главному герою чисто академический!

Качество: HDTVRip
Тип релиза: Без хардсаба
Формат видео: MP4
Релиз/Автор рипа: Zero-Raws
Совместимость с бытовыми плеерами: Да
Видео: H264, 1280x720, 2526 kbps, 23.976 fps, 8 bits
Аудио: AAC, 252 kbps, 48000 Hz, stereo Язык Японский
Субтитры: ass, внешние Язык субтитров русский ; Перевод: Переводчик/Перевод песен/Оформление: Sa4ko aka Kiyoso Редактор: Zenobian
Субтитры 2: srt, внешние Язык субтитров русский ; Перевод 2: Переводчик/Перевод песен/Оформление: Sa4ko aka Kiyoso Редактор: Zenobian
GeneralComplete name : E:\ongoing\Seitokai Yakuindomo S2\[Zero-Raws] Seitokai Yakuindomo S2 - 01 (MX 1280x720 x264 AAC).mp4Format : MPEG-4Format profile : Base MediaCodec ID : isomFile size : 483 MiBDuration : 24mn 14sOverall bit rate : 2 782 KbpsEncoded date : UTC 2014-01-04 18:31:47Tagged date : UTC 2014-01-04 18:31:47

VideoID : 1Format : AVCFormat/Info : Advanced Video CodecFormat profile : High@L3.1Format settings, CABAC : YesFormat settings, ReFrames : 4 framesFormat settings, GOP : M=2, N=32Codec ID : avc1Codec ID/Info : Advanced Video CodingDuration : 24mn 14sBit rate : 2 526 KbpsMaximum bit rate : 18.0 MbpsWidth : 1 280 pixelsHeight : 720 pixelsDisplay aspect ratio : 16:9Frame rate mode : ConstantFrame rate : 23.976 fpsColor space : YUVChroma subsampling : 4:2:0Bit depth : 8 bitsScan type : ProgressiveBits/(Pixel*Frame) : 0.114Stream size : 438 MiB (91%)Writing library : x264 core 133 r2334 a3ac64bEncoding settings : cabac=1 / ref=3 / deblock=1:0:0 / analyse=0x3:0x113 / me=hex / subme=7 / psy=1 / psy_rd=1.00:0.00 / mixed_ref=1 / me_range=16 / chroma_me=1 / trellis=1 / 8x8dct=1 / cqm=0 / deadzone=21,11 / fast_pskip=1 / chroma_qp_offset=-2 / threads=12 / lookahead_threads=2 / sliced_threads=0 / nr=0 / decimate=1 / interlaced=0 / bluray_compat=0 / constrained_intra=0 / bframes=3 / b_pyramid=2 / b_adapt=1 / b_bias=0 / direct=1 / weightb=1 / open_gop=0 / weightp=2 / keyint=250 / keyint_min=23 / scenecut=40 / intra_refresh=0 / rc_lookahead=40 / rc=crf / mbtree=1 / crf=19.5 / qcomp=0.60 / qpmin=0 / qpmax=69 / qpstep=4 / ip_ratio=1.40 / aq=1:1.00Encoded date : UTC 2014-01-04 18:10:22Tagged date : UTC 2014-01-04 18:31:49

AudioID : 2Format : AACFormat/Info : Advanced Audio CodecFormat profile : LCCodec ID : 40Duration : 24mn 14sBit rate mode : VariableBit rate : 252 KbpsMaximum bit rate : 261 KbpsChannel(s) : 2 channelsChannel positions : Front: L RSampling rate : 48.0 KHzCompression mode : LossyStream size : 43.8 MiB (9%)Title : aac#trackID=1:lang=Japanese@GPAC0.5.1-DEV-rev4708Language : JapaneseEncoded date : UTC 2014-01-04 18:31:48Tagged date : UTC 2014-01-04 18:31:49
01. Сонная пора
02. Присмотр за Хагимурой Судзу


Трекер:  [ 15-Фев-2014 18:06 ]

  

Скачать .torrent

Размер .torrent файла 13 KB


Размер: 2.26 GB
Хэш (hash) релиза: a16ef93c193225297164a97c5767ca8d8130e405
Подписка на обновления:

Торренты, похожие на Члены Школьного совета 2 Seitokai Yakuindomo 2 скачать торрент

Форум Название Автор Размер S L Добавлен
Аниме | HD Rips ·· Члены Школьного совета 2/ Seitokai Yakuindomo 2 (Канадзава Хиромити) [TV] [7 из 12] [без хардсаба] [JAP+SUB] [2014 г., комедия, повседневность, WEBRip] [1080p] Polarnik 39795821413.71 GB 0 0 1392983701

14:55

21-Фев-14

Аниме | Rips ·· Члены Школьного совета 2 / Seitokai Yakuindomo* [TV] [01-04 из 12] [Без хардсаба] [RUS(int), JAP] [2014 г., комедия, HDTVRip] [720p] Galfimbul 16283784411.52 GB 0 0 1411018259

08:30

18-Сен-14

Аниме | HD Rips ·· Члены Школьного совета / Seitokai Yakuindomo* (ТВ-2) (Канадзава Хиромити) [TV] [11 из 13] [Без хардсаба] [JAP+SUB] [2014 г., комедия, школа, пародия, BDRip] [1080p] Galfimbul 1762788291716.42 GB 0 0 1412006537

19:02

29-Сен-14

Аниме | HD Rips ·· Члены Школьного совета (ТВ-2) / Seitokai Yakuindomo* (Канадзава Хиромити) [TV] [13 из 13] [Без хардсаба] [RUS(ext) JAP+SUB] [2014, комедия, школа, пародия, BDRip] [1080p] Galfimbul 1772590270616.51 GB 0 0 1498651314

15:01

28-Июн-17

Аниме | Rips ·· Члены Школьного совета (ТВ-2) / Seitokai Yakuindomo* [TV] [13 из 13] [Без хардсаба] [RUS(int), JAP+SUB] [2014 г., комедия, школа, пародия, BDRip] [HWP] Galfimbul 49608556464.62 GB 0 0 1416647084

12:04

22-Ноя-14

Аниме | HD Rips ·· Член Школьного совета (ТВ-2) / Seitokai Yakuindomo* (Ямамото Хидэё) [TV] [без хардсаба] [11 из 13] [JAP+SUB] & [7 из 13] [RUS(ext)] [2014 г., комедия, школа, пародия, BDRip] [720p] Galfimbul 70216032806.54 GB 0 0 1412604117

17:01

6-Окт-14

Еще никто не оставлял запись к записи скачать торрент Члены Школьного совета 2 Seitokai Yakuindomo 2 . Будь первым!

!Обратная связь