Скачать через торрент XXII Зимние Олимпийские игры. Сочи. Фигурное катание. Мужчины. Все выступления Фильм бесплатно в хорошем качестве torrent

Скачивайте на UnionPeer.org фильмы через торрент без регистрации. Новинки кино в хорошем качестве через торрент. На UnionPeer.org можно скачать через торрент фильмы 2014 и 2015 годов. Самые новые фильмы.

Скачать торрент XXII Зимние Олимпийские игры. Сочи. Фигурное катание. Мужчины. Все выступления бесплатно через .torrent фильм мультфильм сериал

Если у вас наблюдаются проблемы со скриншотами, переходом по ссылками, скачиванием торрентов - проблемы в блокировщике рекламы AdBlock. #хорошегоДня!


Статистика раздачи
Размер:  35.38 GB   |    Зарегистрирован:  3 года 7 месяцев   |    .torrent скачан:  41 раз   |   
Раздают:  1  
   
Загрузка...
 
Автор Сообщение

Galfimbul

avatar Galfimbul


XXII Зимние Олимпийские игры. Фигурное катание.
Мужчины. Короткая и произвольная программы


Вид спорта: фигурное катание
Дата/Год выпуска: 13.02.2014-14.02.2014
Автор рипа/записи: собственная запись

Язык комментариев: русский (Алексей Васильев, Артур Дмитриев, Александр Гришин)

Описание: Индивидуальные соревнования по фигурному катанию среди мужчин. Короткая и произвольная программы.
Арена Айсберг, Сочи, 2014

Доп. информация: Запись с каналов РОССИЯ HD и СПОРТ 1 HD (HTB+). Запись не
пережата, в контейнере mkv записаны оригинальные потоки. Вырезаны рекламные блоки.
В перерывах на заливке льда в короткой программе присутствуют интервью Мишина, Волосожар + Транькова и Плющенко.

Качество: HDTV 1080i
Формат видео: MKV
Видео: mpeg4 AVC, 1920x1080, interlaced, interlaced, 50.00 fps, 16:9, YUV, VBR ~13 Mbps
Аудио: mpeg2, stereo, 48 kHz, 192 kbps, rus
General
Unique ID : 186653091605622416328897724585742530829 (0x8C6C13ECE6A723639206292D9171790D)
Complete name : T:\Video\FigSkating\2014 Olympic Winter Games\Figure Skating Single\2014.OlympicWinterGames.Men.ShortProgram.RUSSIA.HD.1080i.mkv
Format : Matroska
Format version : Version 4 / Version 2
File size : 20.2 GiB
Duration : 4h 3mn
Overall bit rate : 11.9 Mbps
Movie name : 2014 Olympic Winter Games Men Short Program
Encoded date : UTC 2014-02-14 22:10:24
Writing application : mkvmerge v6.5.0 ('Isn't she lovely') built on Oct 20 2013 12:50:05
Writing library : libebml v1.3.0 + libmatroska v1.4.1
Original source form : TV
DATE_BROADCASTED : 2014-02-13 20:50:00
TVCHANNEL : Россия HD

Video
ID : 1
Format : AVC
Format/Info : Advanced Video Codec
Format profile : High@L4.0
Format settings, CABAC : Yes
Format settings, ReFrames : 3 frames
Codec ID : V_MPEG4/ISO/AVC
Bit rate : 11.4 Mbps
Width : 1 920 pixels
Height : 1 088 pixels
Original height : 1 080 pixels
Display aspect ratio : 16:9
Original display aspect ratio : 16:9
Standard : Component
Color space : YUV
Chroma subsampling : 4:2:0
Bit depth : 8 bits
Scan type : Interlaced
Scan order : Top Field First
Language : English
Default : Yes
Forced : No
Color primaries : BT.709-5, BT.1361, IEC 61966-2-4, SMPTE RP177
Transfer characteristics : BT.709-5, BT.1361
Matrix coefficients : BT.709-5, BT.1361, IEC 61966-2-4 709, SMPTE RP177

Audio
ID : 2
Format : MPEG Audio
Format version : Version 1
Format profile : Layer 2
Codec ID : A_MPEG/L2
Codec ID/Hint : MP2
Duration : 4h 3mn
Bit rate mode : Constant
Bit rate : 192 Kbps
Channel(s) : 2 channels
Sampling rate : 48.0 KHz
Compression mode : Lossy
Delay relative to video : 15ms
Stream size : 335 MiB (2%)
Language : English
Default : Yes
Forced : No
General
Unique ID : 245645988582664896449595131749322378970 (0xB8CDB24EACFACAA29779DC320F4ECEDA)
Complete name : T:\Video\FigSkating\2014 Olympic Winter Games\Figure Skating Single\2014.OlympicWinterGames.Men.FreeSkating.SPORT1.HD.1080i.mkv
Format : Matroska
Format version : Version 4 / Version 2
File size : 15.2 GiB
Duration : 3h 10mn
Overall bit rate : 11.4 Mbps
Movie name : 2014 Olympic Winter Games Men Free Skating 1080i
Encoded date : UTC 2014-02-14 21:18:09
Writing application : mkvmerge v6.5.0 ('Isn't she lovely') built on Oct 20 2013 12:50:05
Writing library : libebml v1.3.0 + libmatroska v1.4.1
Original source form : TV
DATE_BROADCASTED : 2014-02-14 21:40:00
TVCHANNEL : Спорт 1 HD

Video
ID : 1
Format : AVC
Format/Info : Advanced Video Codec
Format profile : High@L4.0
Format settings, CABAC : Yes
Format settings, ReFrames : 3 frames
Codec ID : V_MPEG4/ISO/AVC
Bit rate : 11.0 Mbps
Width : 1 920 pixels
Height : 1 088 pixels
Original height : 1 080 pixels
Display aspect ratio : 16:9
Original display aspect ratio : 16:9
Standard : Component
Color space : YUV
Chroma subsampling : 4:2:0
Bit depth : 8 bits
Scan type : Interlaced
Scan order : Top Field First
Language : English
Default : Yes
Forced : No
Color primaries : BT.709-5, BT.1361, IEC 61966-2-4, SMPTE RP177
Transfer characteristics : BT.709-5, BT.1361
Matrix coefficients : BT.709-5, BT.1361, IEC 61966-2-4 709, SMPTE RP177

Audio
ID : 2
Format : MPEG Audio
Format version : Version 1
Format profile : Layer 2
Codec ID : A_MPEG/L2
Codec ID/Hint : MP2
Duration : 3h 10mn
Bit rate mode : Constant
Bit rate : 192 Kbps
Channel(s) : 2 channels
Sampling rate : 48.0 KHz
Compression mode : Lossy
Stream size : 262 MiB (2%)
Language : Russian
Default : Yes
Forced : No
1 KERRY Brendan AUS
2 PFEIFER Viktor AUT
3 HENDRICKX Jorik BEL
4 CHAN Patrick CAN
5 FIRUS Liam CAN
6 REYNOLDS Kevin CAN
7 YAN Han CHN
8 BREZINA Michal CZE
9 VERNER Tomas CZE
10 ROMANENKOV Viktor EST
11 AMODIO Florent FRA
12 JOUBERT Brian FRA
13 LIEBERS Peter GER
14 BYCHENKO Alexei ISR
15 PARKINSON Paul Bonifacio ITA
16 HANYU Yuzuru JPN
17 MACHIDA Tatsuki JPN
18 TAKAHASHI Daisuke JPN
19 RAKIMGALIEV Abzal KAZ
20 TEN Denis KAZ
21 MARTINEZ Michael Christian PHI
22 KELEMEN Zoltan ROU
23 PLYUSHCHENKO Evgeny RUS - WD
24 FERNANDEZ Javier ESP
25 RAYA Javier ESP
26 MAJOROV Alexander SWE
27 GODOROZHA Yakov UKR
28 ABBOTT Jeremy USA
29 BROWN Jason USA
30 GE Misha UZB
04:03:00 + 03:10:00



Трекер:  [ 15-Фев-2014 11:27 ]

  

Скачать .torrent

Размер .torrent файла 89 KB


Размер: 35.38 GB
Хэш (hash) релиза: 44283424e4ddf1c480117000c1acd63aee41d53f
Подписка на обновления:

Еще никто не оставлял запись к записи скачать торрент XXII Зимние Олимпийские игры. Сочи. Фигурное катание. Мужчины. Все выступления . Будь первым!

!Обратная связь