Скачать через торрент XXII Зимние Олимпийские Игры 2014 Дневник Олимпиады Фильм бесплатно в хорошем качестве torrent

Скачивайте на UnionPeer.org фильмы через торрент без регистрации. Новинки кино в хорошем качестве через торрент. На UnionPeer.org можно скачать через торрент фильмы 2014 и 2015 годов. Самые новые фильмы.

Скачать торрент XXII Зимние Олимпийские Игры 2014 Дневник Олимпиады бесплатно через .torrent фильм мультфильм сериал

Если у вас наблюдаются проблемы со скриншотами, переходом по ссылками, скачиванием торрентов - проблемы в блокировщике рекламы AdBlock. #хорошегоДня!


Статистика раздачи
Размер:  1.75 GB   |    Зарегистрирован:  3 года 8 месяцев   |    .torrent скачан:  36 раз   |   
Раздают:  1  
   
Загрузка...
 
Автор Сообщение

Galfimbul

avatar Galfimbul


Дневник Олимпиады. Выпуск №13. 14.02.2014 - Вечер

Год выпуска: 2014
Дата эфира: 14 февраля
Ведущий: Дмитрий Губерниев
Язык комментариев: Русский
Продолжительность: 00:25:18
Описание: Вечерний выпуск за 14 февраля 2014 г. Дневника Олимпиады ВГТРК.

С 10 февраля "дневник олимпиады" выходит 2 раза в день!
Автор рипа: sanchez2011

Качество: HDTV
Формат: MPEG-TS
Видео кодек: AVC
Аудио кодек: MP2
Видео: MPEG4 Video (H264) 1920x1080 9190kbps 25fps
Аудио: MPEG Audio 48000Hz stereo 224kbps
GeneralID : 1 (0x1)Complete name : E:\Олимпиада 2014\Дневник Олимпиады\Дневник Олимпиады. Выпуск №13.tsFormat : MPEG-TSFile size : 1.75 GiBDuration : 25mn 18sOverall bit rate mode : VariableOverall bit rate : 9 905 Kbps

VideoID : 1901 (0x76D)Menu ID : 1 (0x1)Format : AVCFormat/Info : Advanced Video CodecFormat profile : High@L4.0Format settings, CABAC : YesFormat settings, ReFrames : 3 framesCodec ID : 27Duration : 25mn 18sBit rate : 9 190 KbpsWidth : 1 920 pixelsHeight : 1 080 pixelsDisplay aspect ratio : 16:9Frame rate : 25.000 fpsStandard : ComponentColor space : YUVChroma subsampling : 4:2:0Bit depth : 8 bitsScan type : InterlacedScan order : Top Field FirstBits/(Pixel*Frame) : 0.177Stream size : 1.62 GiB (93%)Color primaries : BT.709Transfer characteristics : BT.709Matrix coefficients : BT.709

AudioID : 2901 (0xB55)Menu ID : 1 (0x1)Format : MPEG AudioFormat version : Version 1Format profile : Layer 2Codec ID : 3Duration : 25mn 18sBit rate mode : ConstantBit rate : 224 KbpsChannel(s) : 2 channelsSampling rate : 48.0 KHzCompression mode : LossyStream size : 40.6 MiB (2%)Language : Russian


Трекер:  [ 14-Фев-2014 23:05 ]

  

Скачать .torrent

Размер .torrent файла 18 KB


Размер: 1.75 GB
Хэш (hash) релиза: 2c6dd5e7c7b00aa3547cc853c2b879ad95ddf340
Подписка на обновления:

Еще никто не оставлял запись к записи скачать торрент XXII Зимние Олимпийские Игры 2014 Дневник Олимпиады . Будь первым!

!Обратная связь