Скачать через торрент XXII Зимние Олимпийские Игры 2014. Лыжные гонки. Мужчины. Гонка 15 км. Классический стиль Фильм бесплатно в хорошем качестве torrent

Скачивайте на UnionPeer.org фильмы через торрент без регистрации. Новинки кино в хорошем качестве через торрент. На UnionPeer.org можно скачать через торрент фильмы 2014 и 2015 годов. Самые новые фильмы.

Скачать торрент XXII Зимние Олимпийские Игры 2014. Лыжные гонки. Мужчины. Гонка 15 км. Классический стиль бесплатно через .torrent фильм мультфильм сериал

Если у вас наблюдаются проблемы со скриншотами, переходом по ссылками, скачиванием торрентов - проблемы в блокировщике рекламы AdBlock. #хорошегоДня!


Статистика раздачи
Размер:  12.55 GB   |    Зарегистрирован:  3 года 8 месяцев   |    .torrent скачан:  36 раз   |   
Раздают:  1  
   
Загрузка...
 
Автор Сообщение

Galfimbul

avatar Galfimbul


XXII Зимние Олимпийские Игры 2014. Лыжные гонки. Мужчины. Гонка 15 км. Классический стиль

Вид спорта: Лыжные гонки
Дата/Год выпуска: 14.02.14
Язык комментариев: русский

Автор записи: SashaR.

Качество: DVB-S2 Remux
Формат видео: TS
Видео: AVC, 1920x1080, 16:9, 11.7 Mbps, 25 fps
Аудио: MP2, 192 kbps, 48 kHz, 2 channels
Аудио: AC-3, 448 kbps, 48 kHz, 5 channels
J:\Олимпиада\Лыжные гонки. Мужчины. Гонка 15 км. Классический стиль (НТВ+).ts
General #6
ID : 6 (0x6)
Complete name : J:\Олимпиада\Лыжные гонки. Мужчины. Гонка 15 км. Классический стиль (НТВ+).ts
Format : MPEG-TS
File size : 12.5 GiB
Duration : 2h 17mn
Overall bit rate mode : Variable
Overall bit rate : 13.0 Mbps
Video #322
ID : 322 (0x142)
Menu ID : 12102 (0x2F46)
Format : AVC
Format/Info : Advanced Video Codec
Format profile : High@L4.0
Format settings, CABAC : Yes
Format settings, ReFrames : 3 frames
Format settings, GOP : M=4, N=28
Codec ID : 27
Duration : 2h 17mn
Bit rate : 11.7 Mbps
Width : 1 920 pixels
Height : 1 080 pixels
Display aspect ratio : 16:9
Frame rate : 25.000 fps
Standard : Component
Color space : YUV
Chroma subsampling : 4:2:0
Bit depth : 8 bits
Scan type : Interlaced
Scan order : Top Field First
Bits/(Pixel*Frame) : 0.227
Stream size : 11.3 GiB (90%)
Color primaries : BT.709
Transfer characteristics : BT.709
Matrix coefficients : BT.709
Audio #402
ID : 402 (0x192)
Menu ID : 12102 (0x2F46)
Format : AC-3
Format/Info : Audio Coding 3
Mode extension : CM (complete main)
Format settings, Endianness : Big
Codec ID : 6
Duration : 2h 17mn
Bit rate mode : Constant
Bit rate : 448 Kbps
Channel count : 5 channels
Channel positions : Front: L C R, Side: L R
Sampling rate : 48.0 KHz
Bit depth : 16 bits
Compression mode : Lossy
Delay relative to video : 34ms
Stream size : 442 MiB (3%)
Language : Russian
Language, more info : Clean effects
Audio #422
ID : 422 (0x1A6)
Menu ID : 12102 (0x2F46)
Format : MPEG Audio
Format version : Version 1
Format profile : Layer 2
Codec ID : 4
Duration : 2h 17mn
Bit rate mode : Constant
Bit rate : 192 Kbps
Channel count : 2 channels
Sampling rate : 48.0 KHz
Compression mode : Lossy
Delay relative to video : -10ms
Stream size : 189 MiB (1%)
Language : Russian
Language, more info : Clean effects
02:17:48


Трекер:  [ 14-Фев-2014 21:10 ]

  

Скачать .torrent

Размер .torrent файла 126 KB


Размер: 12.55 GB
Хэш (hash) релиза: 735143b9506c87e67a24d3d372e27cc30a7efa63
Подписка на обновления:

Торренты, похожие на XXII Зимние Олимпийские Игры 2014. Лыжные гонки. Мужчины. Гонка 15 км. Классический стиль скачать торрент

Форум Название Автор Размер S L Добавлен
Зимние Олимпийские игры в Сочи 2014 ·· XXII Зимние Олимпийские Игры 2014 / Лыжный спорт / Мужчины / Гонка 15 км / Классический стиль / Перший [13.02.2014, Лыжный спорт, DVBRip, UA] Galfimbul 11426863001.06 GB 0 0 1392388139

17:28

14-Фев-14

Спорт ·· XXII Зимние Олимпийские Игры 2014 / Лыжные гонки / Мужчины / Скиатлон 15 км классическим стилем + 15 км свободным стилем / НТВ+ [09.02.2014, Лыжные гонки, XviD, SATRip] Galfimbul 902903808861 MB 0 0 1453755832

00:03

26-Янв-16

Зимние Олимпийские игры в Сочи 2014 ·· XXII Зимние Олимпийские Игры 2014. Лыжные гонки. Мужчины. Гонка 15 км. Классический стиль / Россия HD [14.02.2014 г., Лыжные гонки, HDTV, 1080i] Galfimbul 74878559486.97 GB 0 0 1392384482

16:28

14-Фев-14

Спорт ·· XXII Зимние Олимпийские Игры 2014 / Лыжные гонки / Мужчина / Гонка 15 км / Классический стиль / + Цветочная церемония / HD Спорт [14.02.2014, Лыжный спорт, HDRip, XviD, RU] Galfimbul 21713702942.02 GB 0 0 1455826195

23:09

18-Фев-16

Зимние Олимпийские игры в Сочи 2014 ·· XXII Зимние Олимпийские Игры 2014 / Лыжные гонки / Мужчины / Скиатлон 15 км классическим стилем + 15 км свободным стилем / НТВ+ [09.02.2014, Конькобежный спорт, MPEG, DVB] Galfimbul 23732623122.21 GB 0 0 1391964040

19:40

9-Фев-14

Еще никто не оставлял запись к записи скачать торрент XXII Зимние Олимпийские Игры 2014. Лыжные гонки. Мужчины. Гонка 15 км. Классический стиль . Будь первым!

!Обратная связь