Скачать через торрент XXII Зимние Олимпийские Игры 2014. Скелетон. Мужчины. 1-я попытка Первый Канал Фильм бесплатно в хорошем качестве torrent

Скачивайте на UnionPeer.org фильмы через торрент без регистрации. Новинки кино в хорошем качестве через торрент. На UnionPeer.org можно скачать через торрент фильмы 2014 и 2015 годов. Самые новые фильмы.

Скачать торрент XXII Зимние Олимпийские Игры 2014. Скелетон. Мужчины. 1-я попытка Первый Канал бесплатно через .torrent фильм мультфильм сериал

Если у вас наблюдаются проблемы со скриншотами, переходом по ссылками, скачиванием торрентов - проблемы в блокировщике рекламы AdBlock. #хорошегоДня!


Статистика раздачи
Размер:  1.6 GB   |    Зарегистрирован:  3 года 8 месяцев   |    .torrent скачан:  38 раз   |   
Раздают:  1  
   
Загрузка...
 
Автор Сообщение

Galfimbul

avatar Galfimbul


XXII Зимние Олимпийские Игры 2014. Скелетон. Мужчины. 1-я попытка

Вид спорта: Скелетон
Комментарий: Профессиональный
Язык комментариев: Русский (Терехов)
Описание: XXII Зимние Олимпийские Игры 2014. Скелетон. Мужчины. 1-я попытка.
Автор рипа: sanchez2011
Качество: DVB
Формат: MPEG-PS
Видео кодек: MPEG2
Аудио кодек: MP2
Видео: MPEG2 Video 720x576 (16:9) 25fps 4000kbps
Аудио: MPEG Audio 48000Hz stereo 192kbps
Все результаты соревнований

Продолжительность: 00:54:55
GeneralComplete name : E:\Олимпиада 2014\XXII Зимние Олимпийские Игры 2014. 14.02.2014 Скелетон. Мужчины. 1-я попытка.mpgFormat : MPEG-PSFile size : 1.60 GiBDuration : 54mn 55sOverall bit rate mode : VariableOverall bit rate : 4 166 Kbps

VideoID : 224 (0xE0)Format : MPEG VideoFormat version : Version 2Format profile : Main@MainFormat settings, BVOP : YesFormat settings, Matrix : CustomFormat settings, GOP : VariableDuration : 54mn 55sBit rate mode : VariableBit rate : 3 891 KbpsMaximum bit rate : 15.0 MbpsWidth : 720 pixelsHeight : 576 pixelsDisplay aspect ratio : 16:9Frame rate : 25.000 fpsStandard : PALColor space : YUVChroma subsampling : 4:2:0Bit depth : 8 bitsScan type : InterlacedScan order : Top Field FirstCompression mode : LossyBits/(Pixel*Frame) : 0.375Time code of first frame : 00:00:00:00Time code source : Group of pictures headerStream size : 1.49 GiB (93%)

AudioID : 192 (0xC0)Format : MPEG AudioFormat version : Version 1Format profile : Layer 2Duration : 54mn 55sBit rate mode : ConstantBit rate : 192 KbpsChannel(s) : 2 channelsSampling rate : 48.0 KHzCompression mode : LossyStream size : 75.4 MiB (5%)


Трекер:  [ 14-Фев-2014 20:37 ]

  

Скачать .torrent

Размер .torrent файла 16 KB


Размер: 1.6 GB
Хэш (hash) релиза: 6e9ff06a2658e7af8329dd8022d6bba8b488fa6a
Подписка на обновления:

Еще никто не оставлял запись к записи скачать торрент XXII Зимние Олимпийские Игры 2014. Скелетон. Мужчины. 1-я попытка Первый Канал . Будь первым!

!Обратная связь