Скачать через торрент XXII Зимние Олимпийские Игры 2014. Кёрлинг. Круговой этап. Сессия 7. Женщины. Россия - Швейцария Первый Канал HD Фильм бесплатно в хорошем качестве torrent

Скачивайте на UnionPeer.org фильмы через торрент без регистрации. Новинки кино в хорошем качестве через торрент. На UnionPeer.org можно скачать через торрент фильмы 2014 и 2015 годов. Самые новые фильмы.

Скачать торрент XXII Зимние Олимпийские Игры 2014. Кёрлинг. Круговой этап. Сессия 7. Женщины. Россия - Швейцария Первый Канал HD бесплатно через .torrent фильм мультфильм сериал

Если у вас наблюдаются проблемы со скриншотами, переходом по ссылками, скачиванием торрентов - проблемы в блокировщике рекламы AdBlock. #хорошегоДня!


Статистика раздачи
Размер:  8.45 GB   |    Зарегистрирован:  3 года 8 месяцев   |    .torrent скачан:  32 раза   |   
Раздают:  1  
   
Загрузка...
 
Автор Сообщение

Galfimbul

avatar Galfimbul


XXII Зимние Олимпийские Игры 2014. Кёрлинг. Круговой этап. Сессия 7. Женщины. Россия - Швейцария

Вид спорта: Кёрлинг
Комментарий: Профессиональный
Язык комментариев: Русский (Владимир Гомельский)
Описание: XXII Зимние Олимпийские Игры 2014. Кёрлинг. Круговой этап. Сессия 7. Женщины. Россия - Швейцария.

Трансляция по середине прервана выпуском новостей.
Автор рипа: sanchez2011
Качество: HDTV
Формат: MPEG-TS
Видео кодек: AVC
Аудио кодек: AC3
Видео: MPEG4 Video (H264) 1920x1080 8081kbps 25fps
Аудио: Dolby AC3 48000Hz 6ch 384kbps
Все результаты соревнований

Продолжительность: 02:15:47
GeneralID : 1 (0x1)Complete name : E:\Олимпиада 2014\XXII Зимние Олимпийские Игры 2014. 14.02.2014 Кёрлинг. Круговой этап. Сессия 7. Женщины. Россия - Швейцария.tsFormat : MPEG-TSFile size : 8.45 GiBDuration : 2h 15mnOverall bit rate mode : VariableOverall bit rate : 8 909 Kbps

VideoID : 305 (0x131)Menu ID : 1 (0x1)Format : AVCFormat/Info : Advanced Video CodecFormat profile : High@L4.0Format settings, CABAC : YesFormat settings, ReFrames : 3 framesCodec ID : 27Duration : 2h 15mnBit rate : 8 081 KbpsWidth : 1 920 pixelsHeight : 1 080 pixelsDisplay aspect ratio : 16:9Frame rate : 25.000 fpsStandard : ComponentColor space : YUVChroma subsampling : 4:2:0Bit depth : 8 bitsScan type : InterlacedScan order : Top Field FirstBits/(Pixel*Frame) : 0.156Stream size : 7.66 GiB (91%)Color primaries : BT.709Transfer characteristics : BT.709Matrix coefficients : BT.709

AudioID : 415 (0x19F)Menu ID : 1 (0x1)Format : AC-3Format/Info : Audio Coding 3Mode extension : CM (complete main)Format settings, Endianness : BigCodec ID : 6Duration : 2h 15mnBit rate mode : ConstantBit rate : 384 KbpsChannel(s) : 6 channelsChannel positions : Front: L C R, Side: L R, LFESampling rate : 48.0 KHzBit depth : 16 bitsCompression mode : LossyStream size : 373 MiB (4%)Language : Russian

TextID : 505 (0x1F9)-888Menu ID : 1 (0x1)Format : Teletext SubtitleLanguage : Russian

MenuID : 256 (0x100)Menu ID : 1 (0x1)Duration : 2h 15mnList : 305 (0x131) (AVC) / 415 (0x19F) (AC-3, Russian) / 505 (0x1F9) ()Language : / Russian


Трекер:  [ 14-Фев-2014 19:03 ]

  

Скачать .torrent

Размер .torrent файла 43 KB


Размер: 8.45 GB
Хэш (hash) релиза: a80302c59fb85db49233d553c62ee6aa64f99846
Подписка на обновления:

Еще никто не оставлял запись к записи скачать торрент XXII Зимние Олимпийские Игры 2014. Кёрлинг. Круговой этап. Сессия 7. Женщины. Россия - Швейцария Первый Канал HD . Будь первым!

!Обратная связь