Скачать через торрент Норагами Noragami бесплатно Аниме Все серии на русском torrent

Если у вас наблюдаются проблемы со скриншотами, переходом по ссылками, скачиванием торрентов - проблемы в блокировщике рекламы AdBlock. #хорошегоДня!


Статистика раздачи
Размер:  3.04 GB   |    Зарегистрирован:  3 года 6 месяцев   |    .torrent скачан:  17 раз   |   
Раздают:  1  
   
Загрузка...
 
Автор Сообщение

Polarnik

avatar Polarnik


Норагами / Noragami
Год выпуска: 2014
Страна: Япония
Жанр: приключения
Продолжительность: ТВ (>12 эп.), 25 мин.
Перевод:

Русские субтитры Fratelli
Перевод: Мария Гостюхина | Редактура: Jenia aka Zub
Русские субтитры LeDi-MaHo Team
Перевод & лирика: MantisFL | Редактура & оформление: Holydarkness
Русские субтитры YakuSub Studio
Перевод & лирика: Nika_Elrik | Редактура: White | Оформление: Helge

Озвучка:

Zendos & Eladiel - Sample
Студия:BONES
Режиссер: Тамура Котаро
Автор оригинала: Адати Тока
Описание: «Бог, который может мечом отменить приговор». В мире людей есть Бог, который может проникнуть в самое сердце человека. Когда вы грустите, когда вы устали, если вы посмотрите вверх, до самого рая, то увидите номер телефона. Но самое важное – не звонить! Если вы позвоните, перед вами появится парень, который с наглым выражением лица скажет: «Возрадуйся, я – Бог». Если это произойдет, то что вы будете делать?
Технические данные:
Качество: HDTVRip
Тип релиза: Без хардсаба
Формат видео: MP4
Наличие линковки: Нет
Релиз/Автор рипа: [Leopard-Raws]
Видео: 1280x720, 23,976fps, H.264, 8 bit, ~1520 kbps
Аудио 1: JAP, AAC LC, 48 KHz, 192 kbps
Аудио 2: RUS(ext), AAC LC, 48 KHz, 225 Kbps
General
Complete name : D:\Видео\Аниме\Зима 2014\Noragami\[Leopard-Raws] Noragami - 01 RAW (MX+MBS 1280x720 x264 AAC).mp4
Format : MPEG-4
Format profile : Base Media
Codec ID : isom
File size : 301 MiB
Duration : 24mn 30s
Overall bit rate mode : Variable
Overall bit rate : 1 715 Kbps
Encoded date : UTC 2014-01-07 05:57:33
Tagged date : UTC 2014-01-07 05:57:33

Video
ID : 1
Format : AVC
Format/Info : Advanced Video Codec
Format profile : High@L4.1
Format settings, CABAC : Yes
Format settings, ReFrames : 4 frames
Codec ID : avc1
Codec ID/Info : Advanced Video Coding
Duration : 24mn 29s
Bit rate : 1 520 Kbps
Maximum bit rate : 15.0 Mbps
Width : 1 280 pixels
Height : 720 pixels
Display aspect ratio : 16:9
Frame rate mode : Constant
Frame rate : 23.976 fps
Color space : YUV
Chroma subsampling : 4:2:0
Bit depth : 8 bits
Scan type : Progressive
Bits/(Pixel*Frame) : 0.069
Stream size : 266 MiB (89%)
Title : 264:fps=23.976@GPAC0.5.1-DEV-rev4283
Writing library : x264 core 129 r2245+729M 1a52e03
Encoding settings : cabac=1 / ref=4 / deblock=1:1:-1 / analyse=0x3:0x113 / me=umh / subme=9 / psy=1 / fade_compensate=0.00 / psy_rd=1.00:0.00 / mixed_ref=1 / me_range=24 / chroma_me=1 / trellis=2 / 8x8dct=1 / cqm=0 / deadzone=21,11 / fast_pskip=1 / chroma_qp_offset=-2 / threads=8 / lookahead_threads=1 / sliced_threads=0 / nr=0 / decimate=1 / interlaced=0 / bluray_compat=0 / constrained_intra=0 / fgo=0 / bframes=9 / b_pyramid=2 / b_adapt=2 / b_bias=0 / direct=1 / weightb=1 / open_gop=0 / weightp=2 / keyint=240 / keyint_min=24 / scenecut=40 / intra_refresh=0 / rc=crf / mbtree=0 / crf=19.0 / qcomp=0.72 / qpmin=0 / qpmax=69 / qpstep=4 / ip_ratio=1.40 / pb_ratio=1.30 / aq=1:0.85
Encoded date : UTC 2014-01-07 05:57:33
Tagged date : UTC 2014-01-07 05:57:35
Color primaries : BT.709
Transfer characteristics : BT.709
Matrix coefficients : BT.709

Audio
ID : 2
Format : AAC
Format/Info : Advanced Audio Codec
Format profile : LC
Codec ID : 40
Duration : 24mn 30s
Bit rate mode : Variable
Bit rate : 192 Kbps
Maximum bit rate : 228 Kbps
Channel count : 2 channels
Channel positions : Front: L R
Sampling rate : 48.0 KHz
Compression mode : Lossy
Stream size : 33.6 MiB (11%)
Language : Japanese
Encoded date : UTC 2014-01-05 15:34:57
Tagged date : UTC 2014-01-07 05:57:35


1. Домашний кот, бездомный бог и хвостик
2. Подобный снегу
3. Пришла беда - отворяй ворота
4. Там, где пребывает счастье
5. Граница
6. Страшная особа
7. Сомнения и судьба
8. Перейдя черту
9. Имя
10. Презренные

[05.03.14] Добавлена 9 серия. Перекачайте торрент, пожалуйста!


Трекер:  [ 06-Мар-2014 17:49 ]

  

Скачать .torrent

Размер .torrent файла 24 KB


Размер: 3.04 GB
Хэш (hash) релиза: 71a791885c616a664ac41d9ad6fff0de3383a994
Подписка на обновления:

Торренты, похожие на Норагами Noragami скачать торрент

Форум Название Автор Размер S L Добавлен
Аниме | HD Rips ·· Бездомный Бог: Арагото / Норагами Арагото / Noragami Aragoto [TV] [01-02 из 12] [без хардсаба] [RUS(int), JAP+SUB] [2015, приключения, HDTVRip] [720p] Galfimbul 804676821767 MB 0 0 1444858985

00:43

15-Окт-15

Аниме | HD Rips ·· Бездомный бог: Арагото / Норагами: Арагото / Noragami: Aragoto (Тамура Котаро) [TV] [01 из 12] [без хардсаба] [JAP+SUB] [2015 г., приключения, романтика, мистика, HDTVRip] [720p] Galfimbul 318684477304 MB 0 0 1443966578

16:49

4-Окт-15

Аниме | Rips ·· Бездомный Бог / Noragami / Норагами [OVA] [2 из 2] [JAP+SUB] [Без хардсаба] [2014 г. Приключения, комедия, мистика, сенен, BDRip] [720p] Galfimbul 668978832638 MB 0 0 1418415022

23:10

12-Дек-14

Аниме | Rips ·· Бездомный Бог / Noragami / Норагами [OVA] [2 из 2] [JAP+SUB] & [1 из 2] [RUS(ext)] [Без хардсаба] [2014 г. Приключения, комедия, мистика, сенен, DVDRip] Galfimbul 11030657541.03 GB 0 0 1409736657

12:30

3-Сен-14

Аниме | Rips ·· Бездомный Бог / Noragami / Норагами [TV] [12 из 12] [Без хардсаба] [JAP+SUB, RUS(ext)] [2014 г., Приключения, комедия, мистика, сенен, BDRip] Galfimbul 42480325653.96 GB 0 0 1409054571

15:02

26-Авг-14

Еще никто не оставлял запись к записи скачать торрент Норагами Noragami . Будь первым!

!Обратная связь