Скачать через торрент XXII Зимние Олимпийские Игры 2014. Кёрлинг. Круговой этап. 7-й тур. Женщины. Россия - Швейцария Первый Канал HD Фильм бесплатно в хорошем качестве torrent

Скачивайте на UnionPeer.org фильмы через торрент без регистрации. Новинки кино в хорошем качестве через торрент. На UnionPeer.org можно скачать через торрент фильмы 2014 и 2015 годов. Самые новые фильмы.

Скачать торрент XXII Зимние Олимпийские Игры 2014. Кёрлинг. Круговой этап. 7-й тур. Женщины. Россия - Швейцария Первый Канал HD бесплатно через .torrent фильм мультфильм сериал

Если у вас наблюдаются проблемы со скриншотами, переходом по ссылками, скачиванием торрентов - проблемы в блокировщике рекламы AdBlock. #хорошегоДня!


Статистика раздачи
Размер:  8.43 GB   |    Зарегистрирован:  3 года 7 месяцев   |    .torrent скачан:  35 раз   |   
Раздают:  1  
   
Загрузка...
 
Автор Сообщение

Galfimbul

avatar Galfimbul


XXII Зимние Олимпийские Игры 2014. Кёрлинг. Круговой этап. 7-й тур.
Женщины. Россия - Швейцария
Дата: 14.02.2014
Вид спорта: Кёрлинг
Продолжительность: 02:15:52
Язык комментариев: Русский

Автор записи: SLuMeP

Качество: HDTV
Формат: TS
Видео: H264; 1920x1080 (16:9); 25.000 fps; 8000 kbps
Аудио: RUS; MP2; 48 KHz; 384 kbps; Stereo; 6 channels
D:\XXII Зимние Олимпийские Игры 2014. Кёрлинг. Россия - Швейцария (2014)_DVB by SLuMeP.ts
General #1
ID : 1 (0x1)
Complete name : D:\XXII Зимние Олимпийские Игры 2014. Кёрлинг. Россия - Швейцария (2014)_DVB by SLuMeP.ts
Format : MPEG-TS
File size : 8.43 GiB
Duration : 2h 15mn
Overall bit rate : 8 885 Kbps

Video #305
ID : 305 (0x131)
Menu ID : 1 (0x1)
Format : AVC
Format/Info : Advanced Video Codec
Format profile : High@L4.0
Format settings, CABAC : Yes
Format settings, ReFrames : 3 frames
Codec ID : 27
Duration : 2h 15mn
Bit rate : 8 058 Kbps
Width : 1 920 pixels
Height : 1 080 pixels
Display aspect ratio : 16:9
Frame rate : 25.000 fps
Standard : Component
Color space : YUV
Chroma subsampling : 4:2:0
Bit depth : 8 bits
Scan type : Interlaced
Scan order : Top Field First
Bits/(Pixel*Frame) : 0.155
Stream size : 7.65 GiB (91%)
Color primaries : BT.709-5, BT.1361, IEC 61966-2-4, SMPTE RP177
Transfer characteristics : BT.709-5, BT.1361
Matrix coefficients : BT.709-5, BT.1361, IEC 61966-2-4 709, SMPTE RP177

Audio #415
ID : 415 (0x19F)
Menu ID : 1 (0x1)
Format : AC-3
Format/Info : Audio Coding 3
Mode extension : CM (complete main)
Codec ID : 6
Duration : 2h 15mn
Bit rate mode : Constant
Bit rate : 384 Kbps
Channel(s) : 6 channels
Channel positions : Front: L C R, Side: L R, LFE
Sampling rate : 48.0 KHz
Bit depth : 16 bits
Compression mode : Lossy
Delay relative to video : -40ms
Stream size : 373 MiB (4%)
Language : Russian


Трекер:  [ 14-Фев-2014 16:28 ]

  

Скачать .torrent

Размер .torrent файла 42 KB


Размер: 8.43 GB
Хэш (hash) релиза: 8bff0a3117038a137d40daf5708f9bc1e3bd3119
Подписка на обновления:

Еще никто не оставлял запись к записи скачать торрент XXII Зимние Олимпийские Игры 2014. Кёрлинг. Круговой этап. 7-й тур. Женщины. Россия - Швейцария Первый Канал HD . Будь первым!

!Обратная связь