Скачать через торрент XXII Зимние Олимпийские Игры 2014. Горнолыжный спорт. Суперкомбинация. Скоростной спуск. Мужчины Россия 2 Фильм бесплатно в хорошем качестве torrent

Скачивайте на UnionPeer.org фильмы через торрент без регистрации. Новинки кино в хорошем качестве через торрент. На UnionPeer.org можно скачать через торрент фильмы 2014 и 2015 годов. Самые новые фильмы.

Скачать торрент XXII Зимние Олимпийские Игры 2014. Горнолыжный спорт. Суперкомбинация. Скоростной спуск. Мужчины Россия 2 бесплатно через .torrent фильм мультфильм сериал

Если у вас наблюдаются проблемы со скриншотами, переходом по ссылками, скачиванием торрентов - проблемы в блокировщике рекламы AdBlock. #хорошегоДня!


Статистика раздачи
Размер:  1.77 GB   |    Зарегистрирован:  3 года 8 месяцев   |    .torrent скачан:  36 раз   |   
Раздают:  1  
   
Загрузка...
 
Автор Сообщение

Galfimbul

avatar Galfimbul


XXII Зимние Олимпийские Игры 2014. Горнолыжный спорт. Суперкомбинация. Скоростной спуск. Мужчины

Вид спорта: Горнолыжный спорт
Комментарий: Профессиональный
Язык комментариев: Русский (Тарас Тимошенко)
Описание: XXII Зимние Олимпийские Игры 2014. Горнолыжный спорт. Суперкомбинация. Скоростной спуск. Мужчины.
Автор рипа: sanchez2011
Качество: DVB
Формат: MPEG-TS
Видео кодек: AVC
Аудио кодек: MP2
Видео: MPEG4 Video (H264) 720x576 (4:3) 25fps 2600kbps
Аудио: MPEG Audio 48000Hz stereo 192kbps
Все результаты соревнований

Продолжительность: 01:26:37
GeneralID : 1 (0x1)Complete name : E:\Олимпиада 2014\XXII Зимние Олимпийские Игры 2014. 14.02.2014 Горнолыжный спорт. Суперкомбинация. Скоростной спуск. Мужчины.tsFormat : MPEG-TSFile size : 1.77 GiBDuration : 1h 26mnOverall bit rate mode : VariableOverall bit rate : 2 923 Kbps

VideoID : 1031 (0x407)Menu ID : 1 (0x1)Format : AVCFormat/Info : Advanced Video CodecFormat profile : Main@L3.0Format settings, CABAC : YesFormat settings, ReFrames : 3 framesCodec ID : 27Duration : 1h 26mnBit rate : 2 585 KbpsWidth : 720 pixelsHeight : 576 pixelsDisplay aspect ratio : 4:3Frame rate : 25.000 fpsStandard : ComponentColor space : YUVChroma subsampling : 4:2:0Bit depth : 8 bitsScan type : InterlacedScan order : Top Field FirstBits/(Pixel*Frame) : 0.249Stream size : 1.56 GiB (88%)Color primaries : BT.601 PALTransfer characteristics : BT.470 System B, BT.470 System GMatrix coefficients : BT.601

AudioID : 1032 (0x408)Menu ID : 1 (0x1)Format : MPEG AudioFormat version : Version 1Format profile : Layer 2Codec ID : 3Duration : 1h 26mnBit rate mode : ConstantBit rate : 192 KbpsChannel(s) : 2 channelsSampling rate : 48.0 KHzCompression mode : LossyStream size : 119 MiB (7%)Language : English


Трекер:  [ 14-Фев-2014 15:50 ]

  

Скачать .torrent

Размер .torrent файла 18 KB


Размер: 1.77 GB
Хэш (hash) релиза: 5b9f5c798fc10df58aa91206c4b703c680098e77
Подписка на обновления:

Еще никто не оставлял запись к записи скачать торрент XXII Зимние Олимпийские Игры 2014. Горнолыжный спорт. Суперкомбинация. Скоростной спуск. Мужчины Россия 2 . Будь первым!

!Обратная связь