Скачать через торрент XXII Зимние Олимпийские Игры 2014. Санный спорт. Мужчины. Двухместные сани. 1-я и 2-я попытки НТВ+ Фильм бесплатно в хорошем качестве torrent

Скачивайте на UnionPeer.org фильмы через торрент без регистрации. Новинки кино в хорошем качестве через торрент. На UnionPeer.org можно скачать через торрент фильмы 2014 и 2015 годов. Самые новые фильмы.

Скачать торрент XXII Зимние Олимпийские Игры 2014. Санный спорт. Мужчины. Двухместные сани. 1-я и 2-я попытки НТВ+ бесплатно через .torrent фильм мультфильм сериал

Если у вас наблюдаются проблемы со скриншотами, переходом по ссылками, скачиванием торрентов - проблемы в блокировщике рекламы AdBlock. #хорошегоДня!


Статистика раздачи
Размер:  5.87 GB   |    Зарегистрирован:  3 года 9 месяцев   |    .torrent скачан:  34 раза   |   
Раздают:  1  
   
Загрузка...
 
Автор Сообщение

Galfimbul

avatar Galfimbul


XXII Зимние Олимпийские Игры 2014. Санный спорт. Мужчины. Двухместные сани. 1-я и 2-я попытки

Вид спорта: Санный спорт
Дата/Год выпуска: 12.02.14
Язык комментариев: русский

Автор записи: SashaR.

Качество: DVB-S2 Remux
Формат видео: TS
Видео: AVC, 1920x1080, 16:9, 15.2 Mbps, 25 fps
Аудио: MP2, 192 kbps, 48 kHz, 2 channels
J:\Олимпиада\Санный спорт. Мужчины. Двойки. 1-я и 2-я попытка (НТВ+).ts
General #6
ID : 6 (0x6)
Complete name : J:\Олимпиада\Санный спорт. Мужчины. Двойки. 1-я и 2-я попытка (НТВ+).ts
Format : MPEG-TS
File size : 5.87 GiB
Duration : 51mn 54s
Overall bit rate mode : Variable
Overall bit rate : 16.2 Mbps
Video #301
ID : 301 (0x12D)
Menu ID : 17101 (0x42CD)
Format : AVC
Format/Info : Advanced Video Codec
Codec ID : 27
Duration : 51mn 54s
Bit rate : 15.2 Mbps
Stream size : 5.51 GiB (94%)
Audio #401
ID : 401 (0x191)
Menu ID : 17101 (0x42CD)
Format : MPEG Audio
Format version : Version 1
Format profile : Layer 2
Codec ID : 4
Duration : 48ms
Bit rate mode : Constant
Bit rate : 192 Kbps
Channel count : 2 channels
Sampling rate : 48.0 KHz
Compression mode : Lossy
Stream size : 1.13 KiB (0%)
Language : Russian
Language, more info : Clean effects
00:51:54


Трекер:  [ 14-Фев-2014 09:00 ]

  

Скачать .torrent

Размер .torrent файла 118 KB


Размер: 5.87 GB
Хэш (hash) релиза: 3259971e90ac5a334ad2c59cff25c07948ef6601
Подписка на обновления:

Торренты, похожие на XXII Зимние Олимпийские Игры 2014. Санный спорт. Мужчины. Двухместные сани. 1-я и 2-я попытки НТВ+ скачать торрент

Форум Название Автор Размер S L Добавлен
Зимние Олимпийские игры в Сочи 2014 ·· XXII Зимние Олимпийские Игры 2014. Санный спорт. Мужчины. Двухместные сани. 1-я и 2-я попытки. НТВ+ [12.02.2014, SD 576р, H.264, RU, IPTV] Galfimbul 22649076282.11 GB 0 0 1392277722

10:48

13-Фев-14

Еще никто не оставлял запись к записи скачать торрент XXII Зимние Олимпийские Игры 2014. Санный спорт. Мужчины. Двухместные сани. 1-я и 2-я попытки НТВ+ . Будь первым!

!Обратная связь