Скачать через торрент XXII Зимние Олимпийские Игры 2014. Кёрлинг. Круговой этап. Сессия 5. Женщины. Россия - Южная Корея Россия 2, Спорт Фильм бесплатно в хорошем качестве torrent

Скачивайте на UnionPeer.org фильмы через торрент без регистрации. Новинки кино в хорошем качестве через торрент. На UnionPeer.org можно скачать через торрент фильмы 2014 и 2015 годов. Самые новые фильмы.

Скачать торрент XXII Зимние Олимпийские Игры 2014. Кёрлинг. Круговой этап. Сессия 5. Женщины. Россия - Южная Корея Россия 2, Спорт бесплатно через .torrent фильм мультфильм сериал

Если у вас наблюдаются проблемы со скриншотами, переходом по ссылками, скачиванием торрентов - проблемы в блокировщике рекламы AdBlock. #хорошегоДня!


Статистика раздачи
Размер:  1.66 GB   |    Зарегистрирован:  3 года 7 месяцев   |    .torrent скачан:  33 раза   |   
Раздают:  1  
   
Загрузка...
 
Автор Сообщение

Galfimbul

avatar Galfimbul


XXII Зимние Олимпийские Игры 2014. Кёрлинг. Круговой этап. Сессия 5. Женщины. Россия - Южная Корея

Вид спорта: Кёрлинг
Комментарий: Профессиональный
Язык комментариев: Русский (Роман Трушечкин)
Описание: XXII Зимние Олимпийские Игры 2014. Кёрлинг. Круговой этап. Сессия 5. Женщины. Россия - Южная Корея
[b]Трансляция начата с конца 2-го энда![/b]
Автор рипа: sanchez2011, ANDREY^2010
Качество: SATRip (Россия 2), IPTVRip (Спорт)
Формат: AVI
Видео кодек: XviD
Аудио кодек: MP3
Видео: MPEG-4 Visual (H263) 720x448 (16:10) 25.00fps 1700kbps
Аудио: MPEG Audio Layer 3 48000Hz stereo 160kbps
Все результаты соревнований

Продолжительность: 02:07:18
GeneralComplete name : E:\Олимпиада 2014\XXII Зимние Олимпийские Игры 2014. 13.02.2014 Кёрлинг. Круговой этап. Сессия 5. Женщины. Россия - Южная Корея.aviFormat : AVIFormat/Info : Audio Video InterleaveFile size : 1.66 GiBDuration : 2h 7mnOverall bit rate : 1 869 KbpsWriting application : VirtualDubMod 1.5.10.2 (build 2540/release)Writing library : VirtualDubMod build 2540/release

VideoID : 0Format : MPEG-4 VisualFormat profile : Advanced Simple@L5Format settings, BVOP : 2Format settings, QPel : NoFormat settings, GMC : No warppointsFormat settings, Matrix : Default (H.263)Codec ID : XVIDCodec ID/Hint : XviDDuration : 2h 7mnBit rate : 1 699 KbpsWidth : 720 pixelsHeight : 448 pixelsDisplay aspect ratio : 16:10Frame rate : 25.000 fpsColor space : YUVChroma subsampling : 4:2:0Bit depth : 8 bitsScan type : ProgressiveCompression mode : LossyBits/(Pixel*Frame) : 0.211Stream size : 1.51 GiB (91%)Writing library : XviD 64

AudioID : 1Format : MPEG AudioFormat version : Version 1Format profile : Layer 3Mode : Joint stereoMode extension : MS StereoCodec ID : 55Codec ID/Hint : MP3Duration : 2h 7mnBit rate mode : ConstantBit rate : 160 KbpsChannel(s) : 2 channelsSampling rate : 48.0 KHzCompression mode : LossyStream size : 146 MiB (9%)Alignment : Aligned on interleavesInterleave, duration : 40 ms (1.00 video frame)Interleave, preload duration : 504 msWriting library : LAME3.100


Трекер:  [ 13-Фев-2014 23:46 ]

  

Скачать .torrent

Размер .torrent файла 17 KB


Размер: 1.66 GB
Хэш (hash) релиза: 9aa948c8fbe1461eb069a43431684318bca632db
Подписка на обновления:

Еще никто не оставлял запись к записи скачать торрент XXII Зимние Олимпийские Игры 2014. Кёрлинг. Круговой этап. Сессия 5. Женщины. Россия - Южная Корея Россия 2, Спорт . Будь первым!

!Обратная связь