Скачать через торрент XXII Зимние Олимпийские Игры 2014. Скелетон. Женщины. 1-я и 2-я попытки Первый Канал Фильм бесплатно в хорошем качестве torrent

Скачивайте на UnionPeer.org фильмы через торрент без регистрации. Новинки кино в хорошем качестве через торрент. На UnionPeer.org можно скачать через торрент фильмы 2014 и 2015 годов. Самые новые фильмы.

Скачать торрент XXII Зимние Олимпийские Игры 2014. Скелетон. Женщины. 1-я и 2-я попытки Первый Канал бесплатно через .torrent фильм мультфильм сериал

Если у вас наблюдаются проблемы со скриншотами, переходом по ссылками, скачиванием торрентов - проблемы в блокировщике рекламы AdBlock. #хорошегоДня!


Статистика раздачи
Размер:  2.08 GB   |    Зарегистрирован:  3 года 8 месяцев   |    .torrent скачан:  40 раз   |   
Раздают:  1  
   
Загрузка...
 
Автор Сообщение

Galfimbul

avatar Galfimbul


XXII Зимние Олимпийские Игры 2014. Скелетон. Женщины. 1-я и 2-я попытки

Вид спорта: Скелетон
Комментарий: Профессиональный
Язык комментариев: Русский (Мария Румянцева)
Описание: XXII Зимние Олимпийские Игры 2014. Скелетон. Женщины. 1-я и 2-я попытки

Окончание первой попытки было прервано выпуском НОВОСТЕЙ, а начало второй попытки не записалось. В любом случае, сильнейшие группы участниц в запись попали.
Автор рипа: sanchez2011
Качество: DVB
Формат: MPEG-PS
Видео кодек: MPEG2
Аудио кодек: MP2
Видео: MPEG2 Video 720x576 (16:9) 25fps 4000kbps
Аудио: MPEG Audio 48000Hz stereo 192kbps
Все результаты соревнований

Продолжительность: 01:11:32
GeneralComplete name : E:\Олимпиада 2014\XXII Зимние Олимпийские Игры 2014. 13.02.2014 Скелетон. Женщины. 1-я и 2-я попытки.mpgFormat : MPEG-PSFile size : 2.08 GiBDuration : 1h 11mnOverall bit rate mode : VariableOverall bit rate : 4 160 Kbps

VideoID : 224 (0xE0)Format : MPEG VideoFormat version : Version 2Format profile : Main@MainFormat settings, BVOP : YesFormat settings, Matrix : CustomFormat settings, GOP : VariableDuration : 1h 11mnBit rate mode : VariableBit rate : 3 885 KbpsMaximum bit rate : 15.0 MbpsWidth : 720 pixelsHeight : 576 pixelsDisplay aspect ratio : 16:9Frame rate : 25.000 fpsStandard : PALColor space : YUVChroma subsampling : 4:2:0Bit depth : 8 bitsScan type : InterlacedScan order : Top Field FirstCompression mode : LossyBits/(Pixel*Frame) : 0.375Time code of first frame : 00:00:00:00Time code source : Group of pictures headerStream size : 1.94 GiB (93%)Matrix coefficients : BT.601

AudioID : 192 (0xC0)Format : MPEG AudioFormat version : Version 1Format profile : Layer 2Duration : 1h 11mnBit rate mode : ConstantBit rate : 192 KbpsChannel(s) : 2 channelsSampling rate : 48.0 KHzCompression mode : LossyStream size : 98.3 MiB (5%)


Трекер:  [ 13-Фев-2014 16:55 ]

  

Скачать .torrent

Размер .torrent файла 11 KB


Размер: 2.08 GB
Хэш (hash) релиза: 5efc46b7b2e18de3f711f6e964289b4d7d2b677d
Подписка на обновления:

Еще никто не оставлял запись к записи скачать торрент XXII Зимние Олимпийские Игры 2014. Скелетон. Женщины. 1-я и 2-я попытки Первый Канал . Будь первым!

!Обратная связь