Скачать через торрент XXII Зимние Олимпийские Игры 2014 Конькобежный спорт Фильм бесплатно в хорошем качестве torrent

Скачивайте на UnionPeer.org фильмы через торрент без регистрации. Новинки кино в хорошем качестве через торрент. На UnionPeer.org можно скачать через торрент фильмы 2014 и 2015 годов. Самые новые фильмы.

Скачать торрент XXII Зимние Олимпийские Игры 2014 Конькобежный спорт бесплатно через .torrent фильм мультфильм сериал

Если у вас наблюдаются проблемы со скриншотами, переходом по ссылками, скачиванием торрентов - проблемы в блокировщике рекламы AdBlock. #хорошегоДня!


Статистика раздачи
Размер:  2.81 GB   |    Зарегистрирован:  3 года 8 месяцев   |    .torrent скачан:  37 раз   |   
Раздают:  1  
   
Загрузка...
 
Автор Сообщение

Galfimbul

avatar Galfimbul


XXII Зимние Олимпийские Игры 2014 / Конькобежный спорт / Мужчины / 1000 метров
Дата: 12.02.2014
Вид спорта: Конькобежный спорт
Продолжительность: 00:35:45
Язык комментариев: Русский

Автор записи: SLuMeP

Качество: HDTV
Формат: TS
Видео: H264; 1920x1080 (16:9); 25.000 fps; 10500 kbps
Аудио: RUS; MP2; 48 KHz; 192 kbps; Stereo; 2 channels
D:\XXII Зимние Олимпийские Игры 2014. Конькобежный спорт. Мужчины. 1000м. (2014)_DVB by SLuMeP.ts
General #1
ID : 1 (0x1)
Complete name : D:\XXII Зимние Олимпийские Игры 2014. Конькобежный спорт. Мужчины. 1000м. (2014)_DVB by SLuMeP.ts
Format : MPEG-TS
File size : 2.81 GiB
Duration : 35mn 46s
Overall bit rate : 11.2 Mbps

Video #303
ID : 303 (0x12F)
Menu ID : 1 (0x1)
Format : AVC
Format/Info : Advanced Video Codec
Format profile : High@L4.0
Format settings, CABAC : Yes
Format settings, ReFrames : 3 frames
Codec ID : 27
Duration : 35mn 45s
Bit rate : 10.5 Mbps
Width : 1 920 pixels
Height : 1 080 pixels
Display aspect ratio : 16:9
Frame rate : 25.000 fps
Standard : Component
Color space : YUV
Chroma subsampling : 4:2:0
Bit depth : 8 bits
Scan type : Interlaced
Scan order : Top Field First
Bits/(Pixel*Frame) : 0.202
Stream size : 2.62 GiB (93%)
Color primaries : BT.709-5, BT.1361, IEC 61966-2-4, SMPTE RP177
Transfer characteristics : BT.709-5, BT.1361
Matrix coefficients : BT.709-5, BT.1361, IEC 61966-2-4 709, SMPTE RP177

Audio #403
ID : 403 (0x193)
Menu ID : 1 (0x1)
Format : MPEG Audio
Format version : Version 1
Format profile : Layer 2
Codec ID : 3
Duration : 35mn 46s
Bit rate mode : Constant
Bit rate : 192 Kbps
Channel(s) : 2 channels
Sampling rate : 48.0 KHz
Compression mode : Lossy
Delay relative to video : -40ms
Stream size : 49.1 MiB (2%)
Language : Russian



Трекер:  [ 12-Фев-2014 17:56 ]

  

Скачать .torrent

Размер .torrent файла 14 KB


Размер: 2.81 GB
Хэш (hash) релиза: ca0948792a4d211f6db421c7efcd57cb52207ed2
Подписка на обновления:

Торренты, похожие на XXII Зимние Олимпийские Игры 2014 Конькобежный спорт скачать торрент

Форум Название Автор Размер S L Добавлен
Зимние Олимпийские игры в Сочи 2014 ·· XXII Зимние Олимпийские Игры 2014 / Конькобежный спорт / Мужчины / 1000 метров / Спорт 1 HD [12.02.14, Конькобежный спорт, DVB-S2 Remux, 1080i, RU] Galfimbul 61341064885.71 GB 0 0 1392493636

22:47

15-Фев-14

Еще никто не оставлял запись к записи скачать торрент XXII Зимние Олимпийские Игры 2014 Конькобежный спорт . Будь первым!

!Обратная связь