Скачать через торрент XXII Зимние Олимпийские Игры 2014. Прыжки на лыжах с трамплина. Женщины. Личный старт. Малый трамплин. HS 106. 2 Попытка. Первый Канал HD Фильм бесплатно в хорошем качестве torrent

Скачивайте на UnionPeer.org фильмы через торрент без регистрации. Новинки кино в хорошем качестве через торрент. На UnionPeer.org можно скачать через торрент фильмы 2014 и 2015 годов. Самые новые фильмы.

Скачать торрент XXII Зимние Олимпийские Игры 2014. Прыжки на лыжах с трамплина. Женщины. Личный старт. Малый трамплин. HS 106. 2 Попытка. Первый Канал HD бесплатно через .torrent фильм мультфильм сериал

Если у вас наблюдаются проблемы со скриншотами, переходом по ссылками, скачиванием торрентов - проблемы в блокировщике рекламы AdBlock. #хорошегоДня!


Статистика раздачи
Размер:  4.33 GB   |    Зарегистрирован:  3 года 8 месяцев   |    .torrent скачан:  33 раза   |   
Раздают:  1  
   
Загрузка...
 
Автор Сообщение

Galfimbul

avatar Galfimbul


XXII Зимние Олимпийские Игры 2014. Прыжки на лыжах с трамплина. Женщины. Личный старт. Малый трамплин. HS 106. 2 Попытка

Вид спорта: Прыжки на лыжах с трамплина
Комментарий: Профессиональный
Язык комментариев: Русский (Сергей Курдюков)
Описание: XXII Зимние Олимпийские Игры 2014. Прыжки на лыжах с трамплина. Женщины. Личный старт. Малый трамплин. HS 106. 2 Попытка

Трансляция началась со ВТОРОЙ ПОПЫТКИ!
Автор рипа: sanchez2011

Качество: HDTV
Формат: MPEG-TS
Видео кодек: AVC
Аудио кодек: MP2
Видео: MPEG4 Video (H264) 1920x1080 15.25Mbps 25fps
Аудио: MPEG Audio 48000Hz stereo 192kbps
Все результаты соревнований

Продолжительность: 00:38:50
GeneralID : 1 (0x1)Complete name : E:\Олимпиада 2014\XXII Зимние Олимпийские Игры 2014. 11.01.2014 Прыжки на лыжах с трамплина. Личный старт. Средний трамплин. Женщины. Финал. Вторая попытка.tsFormat : MPEG-TSFile size : 4.33 GiBDuration : 38mn 50sOverall bit rate mode : VariableOverall bit rate : 16.0 Mbps

VideoID : 2141 (0x85D)Menu ID : 1 (0x1)Format : AVCFormat/Info : Advanced Video CodecFormat profile : Main@L4.0Format settings, CABAC : YesFormat settings, ReFrames : 3 framesCodec ID : 27Duration : 38mn 50sBit rate : 15.0 MbpsWidth : 1 920 pixelsHeight : 1 080 pixelsDisplay aspect ratio : 16:9Frame rate : 25.000 fpsStandard : ComponentColor space : YUVChroma subsampling : 4:2:0Bit depth : 8 bitsScan type : InterlacedScan order : Top Field FirstBits/(Pixel*Frame) : 0.289Stream size : 4.06 GiB (94%)Color primaries : BT.709Transfer characteristics : BT.709Matrix coefficients : BT.709

AudioID : 2142 (0x85E)Menu ID : 1 (0x1)Format : MPEG AudioFormat version : Version 1Format profile : Layer 2Codec ID : 3Duration : 38mn 50sBit rate mode : ConstantBit rate : 192 KbpsChannel(s) : 2 channelsSampling rate : 48.0 KHzCompression mode : LossyStream size : 53.3 MiB (1%)Language : Russian


Трекер:  [ 12-Фев-2014 01:05 ]

  

Скачать .torrent

Размер .torrent файла 22 KB


Размер: 4.33 GB
Хэш (hash) релиза: c53258fe040c4e2fc099bb7156f29f45f673fe88
Подписка на обновления:

Еще никто не оставлял запись к записи скачать торрент XXII Зимние Олимпийские Игры 2014. Прыжки на лыжах с трамплина. Женщины. Личный старт. Малый трамплин. HS 106. 2 Попытка. Первый Канал HD . Будь первым!

!Обратная связь