Скачать через торрент XXII Зимние Олимпийские Игры 2014. Биатлон. Женщины. Гонка преследования 10 км Россия HD Фильм бесплатно в хорошем качестве torrent

Скачивайте на UnionPeer.org фильмы через торрент без регистрации. Новинки кино в хорошем качестве через торрент. На UnionPeer.org можно скачать через торрент фильмы 2014 и 2015 годов. Самые новые фильмы.

Скачать торрент XXII Зимние Олимпийские Игры 2014. Биатлон. Женщины. Гонка преследования 10 км Россия HD бесплатно через .torrent фильм мультфильм сериал

Если у вас наблюдаются проблемы со скриншотами, переходом по ссылками, скачиванием торрентов - проблемы в блокировщике рекламы AdBlock. #хорошегоДня!


Статистика раздачи
Размер:  3.32 GB   |    Зарегистрирован:  3 года 7 месяцев   |    .torrent скачан:  43 раза   |   
Раздают:  1  
   
Загрузка...
 
Автор Сообщение

Galfimbul

avatar Galfimbul


XXII Зимние Олимпийские Игры 2014. Биатлон. Женщины. Гонка преследования 10 км

Вид спорта: Биатлон
Комментарий: Профессиональный
Язык комментариев: Русский (Дмитрий Губерниев)
Описание: XXII Зимние Олимпийские Игры 2014. Биатлон. Женщины. Гонка преследования 10 км. Присутствует цветочная церемония.

Автор рипа: sanchez2011

Качество: HDTV
Формат: MPEG-TS
Видео кодек: AVC
Аудио кодек: MP2
Видео: MPEG4 Video (H264) 1920x1080 8657kbps 25fps
Аудио: MPEG Audio 48000Hz stereo 224kbps
Все результаты соревнований

Продолжительность: 00:50:56
GeneralID : 1 (0x1)Complete name : E:\Олимпиада 2014\XXII Зимние Олимпийские Игры 2014. 11.02.2014 Биатлон. Женщины. Гонка преследования 10 км.tsFormat : MPEG-TSFile size : 3.32 GiBDuration : 50mn 56sOverall bit rate mode : VariableOverall bit rate : 9 345 Kbps

VideoID : 1901 (0x76D)Menu ID : 1 (0x1)Format : AVCFormat/Info : Advanced Video CodecFormat profile : High@L4.0Format settings, CABAC : YesFormat settings, ReFrames : 3 framesCodec ID : 27Duration : 50mn 55sBit rate : 8 657 KbpsWidth : 1 920 pixelsHeight : 1 080 pixelsDisplay aspect ratio : 16:9Frame rate : 25.000 fpsStandard : ComponentColor space : YUVChroma subsampling : 4:2:0Bit depth : 8 bitsScan type : InterlacedScan order : Top Field FirstBits/(Pixel*Frame) : 0.167Stream size : 3.08 GiB (93%)Color primaries : BT.709Transfer characteristics : BT.709Matrix coefficients : BT.709

AudioID : 2901 (0xB55)Menu ID : 1 (0x1)Format : MPEG AudioFormat version : Version 1Format profile : Layer 2Codec ID : 3Duration : 50mn 56sBit rate mode : ConstantBit rate : 224 KbpsChannel(s) : 2 channelsSampling rate : 48.0 KHzCompression mode : LossyStream size : 81.6 MiB (2%)Language : Russian


Трекер:  [ 11-Фев-2014 20:27 ]

  

Скачать .torrent

Размер .torrent файла 17 KB


Размер: 3.32 GB
Хэш (hash) релиза: c9610d04491b10ae73e3807d940c56261d3cb488
Подписка на обновления:

Торренты, похожие на XXII Зимние Олимпийские Игры 2014. Биатлон. Женщины. Гонка преследования 10 км Россия HD скачать торрент

Форум Название Автор Размер S L Добавлен
Зимние Олимпийские игры в Сочи 2014 ·· XXII Зимние Олимпийские Игры 2014. Биатлон. Женщины. Гонка преследования 10 км / Россия HD [11.02.2014, Биатлон, HDTVRip, XviD] Galfimbul 713871360681 MB 0 0 1392139669

20:27

11-Фев-14

Еще никто не оставлял запись к записи скачать торрент XXII Зимние Олимпийские Игры 2014. Биатлон. Женщины. Гонка преследования 10 км Россия HD . Будь первым!

!Обратная связь