Скачать через торрент XXII Зимние Олимпийские Игры 2014. Лыжные гонки. Спринт. 4, 1 Фильм бесплатно в хорошем качестве torrent

Скачивайте на UnionPeer.org фильмы через торрент без регистрации. Новинки кино в хорошем качестве через торрент. На UnionPeer.org можно скачать через торрент фильмы 2014 и 2015 годов. Самые новые фильмы.

Скачать торрент XXII Зимние Олимпийские Игры 2014. Лыжные гонки. Спринт. 4, 1 бесплатно через .torrent фильм мультфильм сериал

Если у вас наблюдаются проблемы со скриншотами, переходом по ссылками, скачиванием торрентов - проблемы в блокировщике рекламы AdBlock. #хорошегоДня!


Статистика раздачи
Размер:  9.65 GB   |    Зарегистрирован:  3 года 8 месяцев   |    .torrent скачан:  47 раз   |   
Раздают:  1  
   
Загрузка...
 
Автор Сообщение

Galfimbul

avatar Galfimbul


XXII Зимние Олимпийские Игры 2014. Лыжные гонки. Спринт. Финалы

Вид спорта: Лыжные гонки
Комментарий: Профессиональный
Язык комментариев: Русский (Сергей Курдюков)
Описание: XXII Зимние Олимпийские Игры 2014. Лыжные гонки. Спринт. Финалы

Автор рипа: sanchez2011

Качество: HDTV
Формат: MPEG-TS
Видео кодек: AVC
Аудио кодек: AC3
Видео: MPEG4 Video (H264) 1920x1080 11.85Mbps 25fps
Аудио: Dolby AC3 48000Hz 6ch 384kbps
Все результаты соревнований

Продолжительность: 01:47:42
GeneralID : 1 (0x1)Complete name : E:\Олимпиада 2014\XXII Зимние Олимпийские Игры 2014. 11.02.2014 Лыжи. Спринт. Финалы.tsFormat : MPEG-TSFile size : 9.65 GiBDuration : 1h 47mnOverall bit rate mode : VariableOverall bit rate : 12.8 Mbps

VideoID : 305 (0x131)Menu ID : 1 (0x1)Format : AVCFormat/Info : Advanced Video CodecFormat profile : High@L4.0Format settings, CABAC : YesFormat settings, ReFrames : 3 framesCodec ID : 27Duration : 1h 47mnBit rate : 11.8 MbpsWidth : 1 920 pixelsHeight : 1 080 pixelsDisplay aspect ratio : 16:9Frame rate : 25.000 fpsStandard : ComponentColor space : YUVChroma subsampling : 4:2:0Bit depth : 8 bitsScan type : InterlacedScan order : Top Field FirstBits/(Pixel*Frame) : 0.228Stream size : 8.88 GiB (92%)Color primaries : BT.709Transfer characteristics : BT.709Matrix coefficients : BT.709

AudioID : 415 (0x19F)Menu ID : 1 (0x1)Format : AC-3Format/Info : Audio Coding 3Mode extension : CM (complete main)Format settings, Endianness : BigCodec ID : 6Duration : 1h 47mnBit rate mode : ConstantBit rate : 384 KbpsChannel(s) : 6 channelsChannel positions : Front: L C R, Side: L R, LFESampling rate : 48.0 KHzBit depth : 16 bitsCompression mode : LossyStream size : 296 MiB (3%)Language : Russian

TextID : 505 (0x1F9)-888Menu ID : 1 (0x1)Format : Teletext SubtitleLanguage : Russian

MenuID : 256 (0x100)Menu ID : 1 (0x1)Duration : 1h 47mnList : 305 (0x131) (AVC) / 415 (0x19F) (AC-3, Russian) / 505 (0x1F9) ()Language : / Russian


Трекер:  [ 11-Фев-2014 18:30 ]

  

Скачать .torrent

Размер .torrent файла 48 KB


Размер: 9.65 GB
Хэш (hash) релиза: 87c870c25e1c017344e94631ea057fbc0817b091
Подписка на обновления:

Еще никто не оставлял запись к записи скачать торрент XXII Зимние Олимпийские Игры 2014. Лыжные гонки. Спринт. 4, 1 . Будь первым!

!Обратная связь