Скачать через торрент XXII Зимние Олимпийские Игры 2014. Лыжные гонки. Спринт. Квалификация Первый Канал HD Фильм бесплатно в хорошем качестве torrent

Скачивайте на UnionPeer.org фильмы через торрент без регистрации. Новинки кино в хорошем качестве через торрент. На UnionPeer.org можно скачать через торрент фильмы 2014 и 2015 годов. Самые новые фильмы.

Скачать торрент XXII Зимние Олимпийские Игры 2014. Лыжные гонки. Спринт. Квалификация Первый Канал HD бесплатно через .torrent фильм мультфильм сериал

Если у вас наблюдаются проблемы со скриншотами, переходом по ссылками, скачиванием торрентов - проблемы в блокировщике рекламы AdBlock. #хорошегоДня!


Статистика раздачи
Размер:  4.73 GB   |    Зарегистрирован:  3 года 8 месяцев   |    .torrent скачан:  34 раза   |   
Раздают:  1  
   
Загрузка...
 
Автор Сообщение

Galfimbul

avatar Galfimbul


XXII Зимние Олимпийские Игры 2014. Лыжные гонки. Спринт. Квалификация

Вид спорта: Лыжные гонки
Комментарий: Профессиональный
Язык комментариев: Русский (Сергей Курдюков)
Описание: XXII Зимние Олимпийские Игры 2014. Лыжные гонки. Спринт. Квалификация

Автор рипа: sanchez2011

Качество: HDTV
Формат: MPEG-TS
Видео кодек: AVC
Аудио кодек: MP2
Видео: MPEG4 Video (H264) 1920x1080 13.1Mbps 25fps
Аудио: MPEG Audio 48000Hz stereo 192kbps
Все результаты соревнований

Продолжительность: 00:48:17
GeneralID : 1 (0x1)Complete name : E:\Олимпиада 2014\XXII Зимние Олимпийские Игры 2014. 11.02.2014 Лыжи. Спринт. Квалификация.tsFormat : MPEG-TSFile size : 4.73 GiBDuration : 48mn 17sOverall bit rate mode : VariableOverall bit rate : 14.0 Mbps

VideoID : 2141 (0x85D)Menu ID : 1 (0x1)Format : AVCFormat/Info : Advanced Video CodecFormat profile : Main@L4.0Format settings, CABAC : YesFormat settings, ReFrames : 3 framesCodec ID : 27Duration : 48mn 17sBit rate : 13.1 MbpsWidth : 1 920 pixelsHeight : 1 080 pixelsDisplay aspect ratio : 16:9Frame rate : 25.000 fpsStandard : ComponentColor space : YUVChroma subsampling : 4:2:0Bit depth : 8 bitsScan type : InterlacedScan order : Top Field FirstBits/(Pixel*Frame) : 0.253Stream size : 4.43 GiB (94%)Color primaries : BT.709Transfer characteristics : BT.709Matrix coefficients : BT.709

AudioID : 2142 (0x85E)Menu ID : 1 (0x1)Format : MPEG AudioFormat version : Version 1Format profile : Layer 2Codec ID : 3Duration : 48mn 17sBit rate mode : ConstantBit rate : 192 KbpsChannel(s) : 2 channelsSampling rate : 48.0 KHzCompression mode : LossyStream size : 66.3 MiB (1%)Language : Russian


Трекер:  [ 11-Фев-2014 14:20 ]

  

Скачать .torrent

Размер .torrent файла 24 KB


Размер: 4.73 GB
Хэш (hash) релиза: 4b58496ca9c2ab17f0d456f27d9ad6339dd247c5
Подписка на обновления:

Еще никто не оставлял запись к записи скачать торрент XXII Зимние Олимпийские Игры 2014. Лыжные гонки. Спринт. Квалификация Первый Канал HD . Будь первым!

!Обратная связь