Скачать через торрент XXII Зимние Олимпийские Игры 2014. Кёрлинг. Круговой этап. Сессия 2. Женщины. Россия - США Первый Канал Фильм бесплатно в хорошем качестве torrent

Скачивайте на UnionPeer.org фильмы через торрент без регистрации. Новинки кино в хорошем качестве через торрент. На UnionPeer.org можно скачать через торрент фильмы 2014 и 2015 годов. Самые новые фильмы.

Скачать торрент XXII Зимние Олимпийские Игры 2014. Кёрлинг. Круговой этап. Сессия 2. Женщины. Россия - США Первый Канал бесплатно через .torrent фильм мультфильм сериал

Если у вас наблюдаются проблемы со скриншотами, переходом по ссылками, скачиванием торрентов - проблемы в блокировщике рекламы AdBlock. #хорошегоДня!


Статистика раздачи
Размер:  4.32 GB   |    Зарегистрирован:  3 года 7 месяцев   |    .torrent скачан:  40 раз   |   
Раздают:  1  
   
Загрузка...
 
Автор Сообщение

Galfimbul

avatar Galfimbul


XXII Зимние Олимпийские Игры 2014. Кёрлинг. Круговой этап. Сессия 2. Женщины. Россия - США

Вид спорта: Кёрлинг
Комментарий: Профессиональный
Язык комментариев: Русский (Владимир Гомельский)
Описание: XXII Зимние Олимпийские Игры 2014. Кёрлинг. Круговой этап. Сессия 2. Женщины. Россия - США. Первый Канал начал показ со второго энда.
Автор рипа: sanchez2011
Качество: DVB
Формат: MPEG-PS
Видео кодек: MPEG2
Аудио кодек: MP2
Видео: MPEG2 Video 720x576 (16:9) 25fps 4000kbps
Аудио: MPEG Audio 48000Hz stereo 192kbps
Все результаты соревнований

Продолжительность: 02:26:02
GeneralComplete name : E:\Олимпиада 2014\XXII Зимние Олимпийские Игры 2014. 11.02.2014 Кёрлинг. Круговой этап. Сессия 2. Женщины. Россия - США.mpgFormat : MPEG-PSFile size : 4.32 GiBDuration : 2h 26mnOverall bit rate mode : VariableOverall bit rate : 4 236 Kbps

VideoID : 224 (0xE0)Format : MPEG VideoFormat version : Version 2Format profile : Main@MainFormat settings, BVOP : YesFormat settings, Matrix : CustomFormat settings, GOP : VariableDuration : 2h 26mnBit rate mode : VariableBit rate : 3 960 KbpsMaximum bit rate : 15.0 MbpsWidth : 720 pixelsHeight : 576 pixelsDisplay aspect ratio : 16:9Frame rate : 25.000 fpsStandard : PALColor space : YUVChroma subsampling : 4:2:0Bit depth : 8 bitsScan type : InterlacedScan order : Top Field FirstCompression mode : LossyBits/(Pixel*Frame) : 0.382Time code of first frame : 00:00:00:00Time code source : Group of pictures headerStream size : 4.04 GiB (93%)Matrix coefficients : BT.601

AudioID : 192 (0xC0)Format : MPEG AudioFormat version : Version 1Format profile : Layer 2Duration : 2h 26mnBit rate mode : ConstantBit rate : 192 KbpsChannel(s) : 2 channelsSampling rate : 48.0 KHzCompression mode : LossyStream size : 201 MiB (5%)


Трекер:  [ 11-Фев-2014 11:20 ]

  

Скачать .torrent

Размер .torrent файла 22 KB


Размер: 4.32 GB
Хэш (hash) релиза: bd5d03354d91f3f968056fa372a1310ba62dafb8
Подписка на обновления:

Еще никто не оставлял запись к записи скачать торрент XXII Зимние Олимпийские Игры 2014. Кёрлинг. Круговой этап. Сессия 2. Женщины. Россия - США Первый Канал . Будь первым!

!Обратная связь