Скачать порно через торрент Kawarazaki-ke no Ichizoku The Animation Дом семьи Каваразаки UnionPeer.org бесплатно онлайн HD качество

Скачать новое порно 2015, 2014 новинки через торрент UnionPeer.org

Порно торрент бесплатно ЮнионПир.орг

Если у вас наблюдаются проблемы со скриншотами, переходом по ссылками, скачиванием торрентов - проблемы в блокировщике рекламы AdBlock. #хорошегоДня!


Статистика раздачи
Размер:  5.54 GB   |    Зарегистрирован:  3 года 6 месяцев   |    .torrent скачан:  264 раза   |   
Раздают:  1  
   
Загрузка...
 
Автор Сообщение

Galfimbul

avatar Galfimbul


Kawarazaki-ke no Ichizoku The Animation / 河原崎家の一族 The Animation / Дом семьи Каваразаки / Каварадзаки

Год производства: 1996 г.
Жанр: Anal sex, Bondage, Tiny tits, Oral sex, Mystic, Incest, Rape, Yuri, Toys
Серии: ep. 1-2 of 2
Продолжительность: 2х~29 min + 12 min трейлеры
Цензура: Есть

Озвучка: Японская (Оригинальная)

Режиссер: Yuki Iwai
Автор оригинала: Elf
Студия: Pink Pineapple

Описание RUS: Дни проходят в этом доме совсем необычно, вместо обычного гостеприимства гости удостаиваются совсем иного внимания. Служанки всегда отсутствуют дабы ублажать своих господ, вне зависимости от их желаний. Скрытые комнаты и зеркала-окна всего лишь часть особняка Каваразаки...

Описание ENG: Mukuto, a college boy working through the vacation as a servant of the aristocratic Kawarazaki family, explores a mysterious pavilion on the grounds of the family mansion. Tempted by gorgeous women and "forced" to commit sexual acts, he is dragged into an alternative world of passion and love. Or it is just a dream?

Информационные ссылки: AniDB - MAL - World Art

Качество видео: 2x DVD5
Формат видео: DVD Video
Видео кодек: MPEG2
Аудио кодек: AC3
Видео: 720х480, (4:3), 29,970 кадров/сек, ~ 9100 Кбит/сек, NTSC
Аудио: JAP, AC-3, 2 канала, 192 Кбит/сек, 48,0 КГц
Общее
Полное имя : J:\VIDEO_TS\VTS_01_1.VOB
Формат : MPEG-PS
Размер файла : 1023 Мбайт
Продолжительность : 15 м.
Режим общего битрейта : Переменный
Общий поток : 9517 Кбит/сек

Видео
Идентификатор : 224 (0xE0)
Формат : MPEG Video
Версия формата : Version 2
Профиль формата : Main@Main
Параметр BVOP формата : Да
Параметр матрицы формата : Выборочная
Параметр GOP формата : Variable
Продолжительность : 15 м.
Вид битрейта : Переменный
Битрейт : 9136 Кбит/сек
Максимальный битрейт : 9800 Кбит/сек
Ширина : 720 пикселей
Высота : 480 пикселей
Соотношение сторон : 4:3
Частота кадров : 29,970 кадров/сек
Стандарт вещания : NTSC
Цветовое пространство : YUV
Субдискретизация насыщенности : 4:2:0
Битовая глубина : 8 бит
Тип развёртки : Чересстрочная
Порядок развёртки : Верхнее поле первое
Метод сжатия : С потерями
Бит/(Пиксели*Кадры) : 0.882
Временной код первого кадра : 01:29:39:00
Оригинал временного кода : Group of pictures header
Размер потока : 982 Мбайт (96%)

Аудио
Идентификатор : 189 (0xBD)-128 (0x80)
Формат : AC-3
Формат/Информация : Audio Coding 3
Расширение режима : CM (complete main)
Параметр Endianness формата : Big
Режим смешивания : DVD-Video
Продолжительность : 15 м.
Вид битрейта : Постоянный
Битрейт : 192 Кбит/сек
Каналы : 2 канала
Расположение каналов : Front: L R
Частота : 48,0 КГц
Битовая глубина : 16 бит
Метод сжатия : С потерями
Размер потока : 20,6 Мбайт (2%)

Меню


Трекер:  [ 11-Фев-2014 11:09 ]

  

Скачать .torrent

Размер .torrent файла 14 KB


Размер: 5.54 GB
Хэш (hash) релиза: 8f17dc5205c1a40b6675579262c4fa77e79836f2

Еще никто не оставлял запись к записи скачать торрент Kawarazaki-ke no Ichizoku The Animation Дом семьи Каваразаки . Будь первым!

!Обратная связь