Скачать через торрент XXII Зимние Олимпийские игры 2014. Горные лыжи. Скоростной спуск. Мужчины . HD Спорт Фильм бесплатно в хорошем качестве torrent

Скачивайте на UnionPeer.org фильмы через торрент без регистрации. Новинки кино в хорошем качестве через торрент. На UnionPeer.org можно скачать через торрент фильмы 2014 и 2015 годов. Самые новые фильмы.

Скачать торрент XXII Зимние Олимпийские игры 2014. Горные лыжи. Скоростной спуск. Мужчины . HD Спорт бесплатно через .torrent фильм мультфильм сериал

Если у вас наблюдаются проблемы со скриншотами, переходом по ссылками, скачиванием торрентов - проблемы в блокировщике рекламы AdBlock. #хорошегоДня!


Статистика раздачи
Размер:  6.29 GB   |    Зарегистрирован:  3 года 8 месяцев   |    .torrent скачан:  31 раз   |   
Раздают:  1  
   
Загрузка...
 
Автор Сообщение

Galfimbul

avatar Galfimbul


XXII Зимние Олимпийские игры 2014. Горные лыжи. Скоростной спуск. Мужчины / HD Спорт

Вид спорта: Горные лыжи
Дата/Год выпуска: 09.02.14
Язык комментариев: русский

Автор записи: SashaR.

Качество: DVB-S2 Remux
Формат видео: TS
Видео: AVC, 1920x1080, 16:9, 15.2 Mbps, 25 fps
Аудио: MP2, 192 kbps, 48 kHz, 2 channels
J:\Олимпиада\Горные лыжи. Скоростной спуск. Мужчины (НТВ+).ts
General #6
ID : 6 (0x6)
Complete name : J:\Олимпиада\Горные лыжи. Скоростной спуск. Мужчины (НТВ+).ts
Format : MPEG-TS
File size : 6.29 GiB
Duration : 55mn 34s
Overall bit rate mode : Variable
Overall bit rate : 16.2 Mbps
Video #301
ID : 301 (0x12D)
Menu ID : 17101 (0x42CD)
Format : AVC
Format/Info : Advanced Video Codec
Format profile : High@L4.0
Format settings, CABAC : Yes
Format settings, ReFrames : 3 frames
Codec ID : 27
Duration : 55mn 33s
Bit rate : 15.2 Mbps
Width : 1 920 pixels
Height : 1 080 pixels
Display aspect ratio : 16:9
Frame rate : 25.000 fps
Standard : Component
Color space : YUV
Chroma subsampling : 4:2:0
Bit depth : 8 bits
Scan type : Interlaced
Scan order : Top Field First
Bits/(Pixel*Frame) : 0.293
Stream size : 5.90 GiB (94%)
Color primaries : BT.709
Transfer characteristics : BT.709
Matrix coefficients : BT.709
Audio #401
ID : 401 (0x191)
Menu ID : 17101 (0x42CD)
Format : MPEG Audio
Format version : Version 1
Format profile : Layer 2
Codec ID : 4
Duration : 55mn 34s
Bit rate mode : Constant
Bit rate : 192 Kbps
Channel count : 2 channels
Sampling rate : 48.0 KHz
Compression mode : Lossy
Delay relative to video : 32ms
Stream size : 76.3 MiB (1%)
Language : Russian
Language, more info : Clean effects
00:55:34


Трекер:  [ 10-Фев-2014 23:57 ]

  

Скачать .torrent

Размер .torrent файла 126 KB


Размер: 6.29 GB
Хэш (hash) релиза: b9bb7b3c8acbdf44e5593d3117a00f68cf004d51
Подписка на обновления:

Торренты, похожие на XXII Зимние Олимпийские игры 2014. Горные лыжи. Скоростной спуск. Мужчины . HD Спорт скачать торрент

Форум Название Автор Размер S L Добавлен
Зимние Олимпийские игры в Сочи 2014 ·· XXII Зимние Олимпийские игры 2014. Горные лыжи. Скоростной спуск. Мужчины / Спорт 1 HD [09.02.2014, HDTV, 1080i, TS] Galfimbul 1124310575210.47 GB 0 0 1391940797

13:13

9-Фев-14

Еще никто не оставлял запись к записи скачать торрент XXII Зимние Олимпийские игры 2014. Горные лыжи. Скоростной спуск. Мужчины . HD Спорт . Будь первым!

!Обратная связь