Скачать через торрент XXII Зимние Олимпийские Игры 2014 Дневник Олимпиады Фильм бесплатно в хорошем качестве torrent

Скачивайте на UnionPeer.org фильмы через торрент без регистрации. Новинки кино в хорошем качестве через торрент. На UnionPeer.org можно скачать через торрент фильмы 2014 и 2015 годов. Самые новые фильмы.

Скачать торрент XXII Зимние Олимпийские Игры 2014 Дневник Олимпиады бесплатно через .torrent фильм мультфильм сериал

Если у вас наблюдаются проблемы со скриншотами, переходом по ссылками, скачиванием торрентов - проблемы в блокировщике рекламы AdBlock. #хорошегоДня!


Статистика раздачи
Размер:  1.87 GB   |    Зарегистрирован:  3 года 8 месяцев   |    .torrent скачан:  39 раз   |   
Раздают:  1  
   
Загрузка...
 
Автор Сообщение

Galfimbul

avatar Galfimbul


Дневник Олимпиады. Выпуск №5

Год выпуска: 2014
Дата эфира: 10 февраля
Ведущие: Дмитрий Губерниев
Язык комментариев: Русский
Продолжительность: 00:25:12
Описание: Пятый, вечерний выпуск за 10 ферваля 2014 г. Дневника Олимпиады ВГТРК. Медали дня, интервью со спортсменами, прямое включение с могула, где в прямом эфире решалась судьба нашего спортсмена.
Автор рипа: sanchez2011

Качество: HDTV
Формат: MPEG-TS
Видео кодек: AVC
Аудио кодек: MP2
Видео: MPEG4 Video (H264) 1920x1080 9865Kbps 25fps
Аудио: MPEG Audio 48000Hz stereo 224kbps
GeneralID : 1 (0x1)Complete name : E:\Олимпиада 2014\Дневник Олимпиады\Дневник Олимпиады. Выпуск №5.tsFormat : MPEG-TSFile size : 1.87 GiBDuration : 25mn 12sOverall bit rate mode : VariableOverall bit rate : 10.6 Mbps

VideoID : 1901 (0x76D)Menu ID : 1 (0x1)Format : AVCFormat/Info : Advanced Video CodecFormat profile : High@L4.0Format settings, CABAC : YesFormat settings, ReFrames : 3 framesCodec ID : 27Duration : 25mn 12sBit rate : 9 865 KbpsWidth : 1 920 pixelsHeight : 1 080 pixelsDisplay aspect ratio : 16:9Frame rate : 25.000 fpsStandard : ComponentColor space : YUVChroma subsampling : 4:2:0Bit depth : 8 bitsScan type : InterlacedScan order : Top Field FirstBits/(Pixel*Frame) : 0.190Stream size : 1.74 GiB (93%)Color primaries : BT.709Transfer characteristics : BT.709Matrix coefficients : BT.709

AudioID : 2901 (0xB55)Menu ID : 1 (0x1)Format : MPEG AudioFormat version : Version 1Format profile : Layer 2Codec ID : 3Duration : 25mn 12sBit rate mode : ConstantBit rate : 224 KbpsChannel(s) : 2 channelsSampling rate : 48.0 KHzCompression mode : LossyStream size : 40.4 MiB (2%)Language : Russian


Трекер:  [ 10-Фев-2014 23:57 ]

  

Скачать .torrent

Размер .torrent файла 19 KB


Размер: 1.87 GB
Хэш (hash) релиза: 1574fc189b17ad65c17046afa74caa8a5b0aba1e
Подписка на обновления:

Еще никто не оставлял запись к записи скачать торрент XXII Зимние Олимпийские Игры 2014 Дневник Олимпиады . Будь первым!

!Обратная связь