Скачать через торрент XII Зимние Олимпийские Игры 2014 Прыжки с трамплина Фильм бесплатно в хорошем качестве torrent

Скачивайте на UnionPeer.org фильмы через торрент без регистрации. Новинки кино в хорошем качестве через торрент. На UnionPeer.org можно скачать через торрент фильмы 2014 и 2015 годов. Самые новые фильмы.

Скачать торрент XII Зимние Олимпийские Игры 2014 Прыжки с трамплина бесплатно через .torrent фильм мультфильм сериал

Если у вас наблюдаются проблемы со скриншотами, переходом по ссылками, скачиванием торрентов - проблемы в блокировщике рекламы AdBlock. #хорошегоДня!


Статистика раздачи
Размер:  11.89 GB   |    Зарегистрирован:  3 года 10 месяцев   |    .torrent скачан:  39 раз   |   
Раздают:  1  
   
Загрузка...
 
Автор Сообщение

Galfimbul

avatar Galfimbul


XII Зимние Олимпийские Игры 2014 / Прыжки с трамплина / Мужчины / Трамплин К-95 / Финал

Вид спорта: Прыжки с трамплина
Дата/Год выпуска: 09.02.14
Язык комментариев: русский

Автор записи: SashaR.

Качество: DVB-S2 Remux
Формат видео: TS
Видео: AVC, 1920x1080, 16:9, 11.9 Mbps, 25 fps
Аудио: MP2, 192 kbps, 48 kHz, 2 channels
Аудио: AC-3, 448 kbps, 48 kHz, 5 channels
J:\Олимпиада\Прыжки с трамплина. Мужчины. Трамплин К-95. Финал (HD Спорт).ts
General #6
ID : 6 (0x6)
Complete name : J:\Олимпиада\Прыжки с трамплина. Мужчины. Трамплин К-95. Финал (HD Спорт).ts
Format : MPEG-TS
File size : 11.9 GiB
Duration : 2h 9mn
Overall bit rate mode : Variable
Overall bit rate : 13.2 Mbps
Video #322
ID : 322 (0x142)
Menu ID : 12102 (0x2F46)
Format : AVC
Format/Info : Advanced Video Codec
Format profile : High@L4.0
Format settings, CABAC : Yes
Format settings, ReFrames : 3 frames
Codec ID : 27
Duration : 2h 9mn
Bit rate : 11.9 Mbps
Width : 1 920 pixels
Height : 1 080 pixels
Display aspect ratio : 16:9
Frame rate : 25.000 fps
Standard : Component
Color space : YUV
Chroma subsampling : 4:2:0
Bit depth : 8 bits
Scan type : Interlaced
Scan order : Top Field First
Bits/(Pixel*Frame) : 0.229
Stream size : 10.7 GiB (90%)
Color primaries : BT.709
Transfer characteristics : BT.709
Matrix coefficients : BT.709
Audio #402
ID : 402 (0x192)
Menu ID : 12102 (0x2F46)
Format : AC-3
Format/Info : Audio Coding 3
Mode extension : CM (complete main)
Format settings, Endianness : Big
Codec ID : 6
Duration : 2h 9mn
Bit rate mode : Constant
Bit rate : 448 Kbps
Channel count : 5 channels
Channel positions : Front: L C R, Side: L R
Sampling rate : 48.0 KHz
Bit depth : 16 bits
Compression mode : Lossy
Delay relative to video : 115ms
Stream size : 414 MiB (3%)
Language : Russian
Language, more info : Clean effects
Audio #422
ID : 422 (0x1A6)
Menu ID : 12102 (0x2F46)
Format : MPEG Audio
Format version : Version 1
Format profile : Layer 2
Codec ID : 4
Duration : 2h 9mn
Bit rate mode : Constant
Bit rate : 192 Kbps
Channel count : 2 channels
Sampling rate : 48.0 KHz
Compression mode : Lossy
Delay relative to video : 101ms
Stream size : 178 MiB (1%)
Language : Russian
Language, more info : Clean effects
02:09:16


Трекер:  [ 10-Фев-2014 22:26 ]

  

Скачать .torrent

Размер .torrent файла 119 KB


Размер: 11.89 GB
Хэш (hash) релиза: e7a6ec99d5b5c83bbab6c2b0f0d79014b3025bc6
Подписка на обновления:

Еще никто не оставлял запись к записи скачать торрент XII Зимние Олимпийские Игры 2014 Прыжки с трамплина . Будь первым!

!Обратная связь