Скачать через торрент XXII Зимние Олимпийские Игры 2014. Биатлон. Гонка преследования 12,5 км. Мужчины Первый Канал HD Фильм бесплатно в хорошем качестве torrent

Скачивайте на UnionPeer.org фильмы через торрент без регистрации. Новинки кино в хорошем качестве через торрент. На UnionPeer.org можно скачать через торрент фильмы 2014 и 2015 годов. Самые новые фильмы.

Скачать торрент XXII Зимние Олимпийские Игры 2014. Биатлон. Гонка преследования 12,5 км. Мужчины Первый Канал HD бесплатно через .torrent фильм мультфильм сериал

Если у вас наблюдаются проблемы со скриншотами, переходом по ссылками, скачиванием торрентов - проблемы в блокировщике рекламы AdBlock. #хорошегоДня!


Статистика раздачи
Размер:  670 MB   |    Зарегистрирован:  3 года 7 месяцев   |    .torrent скачан:  35 раз   |   
Раздают:  1  
   
Загрузка...
 
Автор Сообщение

Galfimbul

avatar Galfimbul


XXII Зимние Олимпийские Игры 2014. Биатлон. Гонка преследования 12,5 км. Мужчины

Вид спорта: Биатлон
Комментарий: Профессиональный
Язык комментариев: Русский (Набутов (это полный пздц) и Круглов)
Описание: XXII Зимние Олимпийские Игры 2014. Биатлон. Гонка преследования 12,5 км. Мужчины

Автор рипа: sanchez2011

Качество: HDTVRip
Формат: AVI
Видео кодек: XviD
Аудио кодек: AC3
Видео: MPEG4 Visual (H263) 720x400 (16:9) 1700Mbps 25fps
Аудио: Dolby AC3 48000Hz 6ch 384kbps
Все результаты соревнований

Продолжительность: 00:44:46
GeneralComplete name : E:\Олимпиада 2014\XXII Зимние Олимпийские Игры 2014. 10.02.2014 Биатлон. Гонка преследования 12,5 км. Мужчины.aviFormat : AVIFormat/Info : Audio Video InterleaveFile size : 670 MiBDuration : 44mn 46sOverall bit rate : 2 094 KbpsWriting application : VirtualDubMod 1.5.10.2 (build 2540/release)Writing library : VirtualDubMod build 2540/release

VideoID : 0Format : MPEG-4 VisualFormat profile : Advanced Simple@L5Format settings, BVOP : 2Format settings, QPel : NoFormat settings, GMC : No warppointsFormat settings, Matrix : Default (H.263)Codec ID : XVIDCodec ID/Hint : XviDDuration : 44mn 46sBit rate : 1 700 KbpsWidth : 704 pixelsHeight : 400 pixelsDisplay aspect ratio : 16:9Frame rate : 25.000 fpsColor space : YUVChroma subsampling : 4:2:0Bit depth : 8 bitsScan type : ProgressiveCompression mode : LossyBits/(Pixel*Frame) : 0.241Stream size : 544 MiB (81%)Writing library : XviD 64

AudioID : 1Format : AC-3Format/Info : Audio Coding 3Mode extension : CM (complete main)Format settings, Endianness : BigCodec ID : 2000Duration : 44mn 46sBit rate mode : ConstantBit rate : 384 KbpsChannel(s) : 6 channelsChannel positions : Front: L C R, Side: L R, LFESampling rate : 48.0 KHzBit depth : 16 bitsCompression mode : LossyStream size : 123 MiB (18%)Alignment : Split accross interleavesInterleave, duration : 40 ms (1.00 video frame)Interleave, preload duration : 500 ms


Трекер:  [ 10-Фев-2014 21:19 ]

  

Скачать .torrent

Размер .torrent файла 13 KB


Размер: 670 MB
Хэш (hash) релиза: 6434599b8f15c4a7791d2b8052f51fbb26789619
Подписка на обновления:

Торренты, похожие на XXII Зимние Олимпийские Игры 2014. Биатлон. Гонка преследования 12,5 км. Мужчины Первый Канал HD скачать торрент

Форум Название Автор Размер S L Добавлен
Зимние Олимпийские игры в Сочи 2014 ·· XXII Зимние Олимпийские Игры 2014. Биатлон. Гонка преследования 12,5 км. Мужчины / Первый Канал HD [10.02.2014 г., Биатлон, HDTV, 1080i] Galfimbul 40049884403.73 GB 0 0 1392050103

19:35

10-Фев-14

Еще никто не оставлял запись к записи скачать торрент XXII Зимние Олимпийские Игры 2014. Биатлон. Гонка преследования 12,5 км. Мужчины Первый Канал HD . Будь первым!

!Обратная связь