Скачать через торрент XXII Зимние Олимпийские Игры 2014. Конькобежный спорт. Мужчины. 500 м Россия 2, Россия 1 Фильм бесплатно в хорошем качестве torrent

Скачивайте на UnionPeer.org фильмы через торрент без регистрации. Новинки кино в хорошем качестве через торрент. На UnionPeer.org можно скачать через торрент фильмы 2014 и 2015 годов. Самые новые фильмы.

Скачать торрент XXII Зимние Олимпийские Игры 2014. Конькобежный спорт. Мужчины. 500 м Россия 2, Россия 1 бесплатно через .torrent фильм мультфильм сериал

Если у вас наблюдаются проблемы со скриншотами, переходом по ссылками, скачиванием торрентов - проблемы в блокировщике рекламы AdBlock. #хорошегоДня!


Статистика раздачи
Размер:  1.64 GB   |    Зарегистрирован:  3 года 8 месяцев   |    .torrent скачан:  34 раза   |   
Раздают:  1  
   
Загрузка...
 
Автор Сообщение

Galfimbul

avatar Galfimbul


XXII Зимние Олимпийские Игры 2014. Конькобежный спорт. Мужчины. 500 м

Вид спорта: Конькобежный спорт
Комментарий: Профессиональный
Язык комментариев: Русский (Александр Гришин)
Описание: XXII Зимние Олимпийские Игры 2014. Конькобежный спорт. Мужчины. 500 м
Автор рипа: sanchez2011
Качество: SATRip
Формат: AVI
Видео кодек: XviD
Аудио кодек: MP3
Видео: MPEG-4 Visual (H263) 720x448 (16:10) 25.00fps 1700kbps
Аудио: MPEG Audio Layer 3 48000Hz stereo 128kbps
Все результаты соревнований

Продолжительность: 02:07:57
GeneralComplete name : E:\Олимпиада 2014\XXII Зимние Олимпийские Игры 2014. 10.02.2014 Конькобежный спорт. Мужчины. 500 м.aviFormat : AVIFormat/Info : Audio Video InterleaveFile size : 1.64 GiBDuration : 2h 7mnOverall bit rate : 1 837 KbpsWriting application : VirtualDubMod 1.5.10.2 (build 2540/release)Writing library : VirtualDubMod build 2540/release

VideoID : 0Format : MPEG-4 VisualFormat profile : Advanced Simple@L5Format settings, BVOP : 2Format settings, QPel : NoFormat settings, GMC : No warppointsFormat settings, Matrix : Default (H.263)Codec ID : XVIDCodec ID/Hint : XviDDuration : 2h 7mnBit rate : 1 699 KbpsWidth : 720 pixelsHeight : 448 pixelsDisplay aspect ratio : 16:10Frame rate : 25.000 fpsColor space : YUVChroma subsampling : 4:2:0Bit depth : 8 bitsScan type : ProgressiveCompression mode : LossyBits/(Pixel*Frame) : 0.211Stream size : 1.52 GiB (93%)Writing library : XviD 64

AudioID : 1Format : MPEG AudioFormat version : Version 1Format profile : Layer 3Mode : Joint stereoMode extension : MS StereoCodec ID : 55Codec ID/Hint : MP3Duration : 2h 7mnBit rate mode : ConstantBit rate : 128 KbpsChannel(s) : 2 channelsSampling rate : 48.0 KHzCompression mode : LossyStream size : 117 MiB (7%)Alignment : Aligned on interleavesInterleave, duration : 40 ms (1.00 video frame)Interleave, preload duration : 504 msWriting library : LAME3.100


Трекер:  [ 10-Фев-2014 21:18 ]

  

Скачать .torrent

Размер .torrent файла 17 KB


Размер: 1.64 GB
Хэш (hash) релиза: 0bfb492aa6ff1e5d5e559236516e5fbfd1a82d7e
Подписка на обновления:

Еще никто не оставлял запись к записи скачать торрент XXII Зимние Олимпийские Игры 2014. Конькобежный спорт. Мужчины. 500 м Россия 2, Россия 1 . Будь первым!

!Обратная связь