Скачать через торрент XXII Зимние Олимпийские Игры 2014. Биатлон. Гонка преследования 12,5 км. Мужчины Первый Канал HD Фильм бесплатно в хорошем качестве torrent

Скачивайте на UnionPeer.org фильмы через торрент без регистрации. Новинки кино в хорошем качестве через торрент. На UnionPeer.org можно скачать через торрент фильмы 2014 и 2015 годов. Самые новые фильмы.

Скачать торрент XXII Зимние Олимпийские Игры 2014. Биатлон. Гонка преследования 12,5 км. Мужчины Первый Канал HD бесплатно через .torrent фильм мультфильм сериал

Если у вас наблюдаются проблемы со скриншотами, переходом по ссылками, скачиванием торрентов - проблемы в блокировщике рекламы AdBlock. #хорошегоДня!


Статистика раздачи
Размер:  3.73 GB   |    Зарегистрирован:  3 года 8 месяцев   |    .torrent скачан:  29 раз   |   
Раздают:  1  
   
Загрузка...
 
Автор Сообщение

Galfimbul

avatar Galfimbul


XXII Зимние Олимпийские Игры 2014. Биатлон. Гонка преследования 12,5 км. Мужчины

Вид спорта: Биатлон
Комментарий: Профессиональный
Язык комментариев: Русский (Набутов (это полный пздц) и Круглов)
Описание: XXII Зимние Олимпийские Игры 2014. Биатлон. Гонка преследования 12,5 км. Мужчины

Автор рипа: sanchez2011

Качество: HDTV
Формат: MPEG-TS
Видео кодек: AVC
Аудио кодек: AC3
Видео: MPEG4 Video (H264) 1920x1080 11.1Mbps 25fps
Аудио: Dolby AC3 48000Hz 6ch 384kbps
Все результаты соревнований

Продолжительность: 00:44:46
GeneralID : 1 (0x1)Complete name : E:\Олимпиада 2014\XXII Зимние Олимпийские Игры 2014. 10.02.2014 Биатлон. Гонка преследования 12,5 км. Мужчины.tsFormat : MPEG-TSFile size : 3.73 GiBDuration : 44mn 46sOverall bit rate mode : VariableOverall bit rate : 11.9 Mbps

VideoID : 305 (0x131)Menu ID : 1 (0x1)Format : AVCFormat/Info : Advanced Video CodecFormat profile : High@L4.0Format settings, CABAC : YesFormat settings, ReFrames : 3 framesCodec ID : 27Duration : 44mn 46sBit rate : 10.9 MbpsWidth : 1 920 pixelsHeight : 1 080 pixelsDisplay aspect ratio : 16:9Frame rate : 25.000 fpsStandard : ComponentColor space : YUVChroma subsampling : 4:2:0Bit depth : 8 bitsScan type : InterlacedScan order : Top Field FirstBits/(Pixel*Frame) : 0.211Stream size : 3.42 GiB (92%)Color primaries : BT.709Transfer characteristics : BT.709Matrix coefficients : BT.709

AudioID : 415 (0x19F)Menu ID : 1 (0x1)Format : AC-3Format/Info : Audio Coding 3Mode extension : CM (complete main)Format settings, Endianness : BigCodec ID : 6Duration : 44mn 46sBit rate mode : ConstantBit rate : 384 KbpsChannel(s) : 6 channelsChannel positions : Front: L C R, Side: L R, LFESampling rate : 48.0 KHzBit depth : 16 bitsCompression mode : LossyStream size : 123 MiB (3%)Language : Russian

TextID : 505 (0x1F9)-888Menu ID : 1 (0x1)Format : Teletext SubtitleLanguage : Russian

MenuID : 256 (0x100)Menu ID : 1 (0x1)Duration : 44mn 46sList : 305 (0x131) (AVC) / 415 (0x19F) (AC-3, Russian) / 505 (0x1F9) ()Language : / Russian


Трекер:  [ 10-Фев-2014 19:35 ]

  

Скачать .torrent

Размер .torrent файла 19 KB


Размер: 3.73 GB
Хэш (hash) релиза: a7ee8598f0f0e437388cc62663016b9cd3af5e43
Подписка на обновления:

Торренты, похожие на XXII Зимние Олимпийские Игры 2014. Биатлон. Гонка преследования 12,5 км. Мужчины Первый Канал HD скачать торрент

Форум Название Автор Размер S L Добавлен
Зимние Олимпийские игры в Сочи 2014 ·· XXII Зимние Олимпийские Игры 2014. Биатлон. Гонка преследования 12,5 км. Мужчины / Первый Канал HD [10.02.2014 г., Биатлон, HDTVRip, XviD] Galfimbul 703043584670 MB 0 0 1392056369

21:19

10-Фев-14

Еще никто не оставлял запись к записи скачать торрент XXII Зимние Олимпийские Игры 2014. Биатлон. Гонка преследования 12,5 км. Мужчины Первый Канал HD . Будь первым!

!Обратная связь