Скачать через торрент XXII Зимние Олимпийские Игры 2014. Биатлон. Спринт 7,5 км. Женщины Первый Канал Фильм бесплатно в хорошем качестве torrent

Скачивайте на UnionPeer.org фильмы через торрент без регистрации. Новинки кино в хорошем качестве через торрент. На UnionPeer.org можно скачать через торрент фильмы 2014 и 2015 годов. Самые новые фильмы.

Скачать торрент XXII Зимние Олимпийские Игры 2014. Биатлон. Спринт 7,5 км. Женщины Первый Канал бесплатно через .torrent фильм мультфильм сериал

Если у вас наблюдаются проблемы со скриншотами, переходом по ссылками, скачиванием торрентов - проблемы в блокировщике рекламы AdBlock. #хорошегоДня!


Статистика раздачи
Размер:  901 MB   |    Зарегистрирован:  3 года 8 месяцев   |    .torrent скачан:  34 раза   |   
Раздают:  1  
   
Загрузка...
 
Автор Сообщение

Galfimbul

avatar Galfimbul


XXII Зимние Олимпийские Игры 2014. Биатлон. Спринт 7,5 км. Женщины

Вид спорта: Биатлон
Комментарий: Профессиональный
Язык комментариев: Русский (Набутов (это пздц) и Круглов)
Описание: XXII Зимние Олимпийские Игры 2014. Биатлон. Спринт 7,5 км. Женщины.
Рип по просьбам трудящихся
Автор рипа: sanchez2011
Качество: SATRip
Формат: AVI
Видео кодек: XviD
Аудио кодек: MP3
Видео: MPEG4 Visual (H263) 720x400 1700kbps 25fps
Аудио: MPEG Audio Layer 3 48000Hz stereo 128kbps
УРАААА! Вторая медаль сборной России на Олимпиаде в Сочи!!
Все результаты соревнований

Продолжительность: 01:08:31
GeneralComplete name : E:\Олимпиада 2014\XXII Зимние Олимпийские Игры 2014. 09.02.2014 Биатлон. Спринт 7,5 км. Женщины.aviFormat : AVIFormat/Info : Audio Video InterleaveFile size : 901 MiBDuration : 1h 8mnOverall bit rate : 1 838 KbpsWriting application : VirtualDubMod 1.5.10.2 (build 2540/release)Writing library : VirtualDubMod build 2540/release

VideoID : 0Format : MPEG-4 VisualFormat profile : Advanced Simple@L5Format settings, BVOP : 2Format settings, QPel : NoFormat settings, GMC : No warppointsFormat settings, Matrix : Default (H.263)Codec ID : XVIDCodec ID/Hint : XviDDuration : 1h 8mnBit rate : 1 700 KbpsWidth : 720 pixelsHeight : 400 pixelsDisplay aspect ratio : 16:9Frame rate : 25.000 fpsColor space : YUVChroma subsampling : 4:2:0Bit depth : 8 bitsScan type : ProgressiveCompression mode : LossyBits/(Pixel*Frame) : 0.236Stream size : 833 MiB (93%)Writing library : XviD 64

AudioID : 1Format : MPEG AudioFormat version : Version 1Format profile : Layer 3Mode : Joint stereoMode extension : MS StereoCodec ID : 55Codec ID/Hint : MP3Duration : 1h 8mnBit rate mode : ConstantBit rate : 128 KbpsChannel(s) : 2 channelsSampling rate : 48.0 KHzCompression mode : LossyStream size : 62.7 MiB (7%)Alignment : Aligned on interleavesInterleave, duration : 40 ms (1.00 video frame)Interleave, preload duration : 504 msWriting library : LAME3.100


Трекер:  [ 10-Фев-2014 12:23 ]

  

Скачать .torrent

Размер .torrent файла 18 KB


Размер: 901 MB
Хэш (hash) релиза: 6d72864ffc0bce5558b6ccd84c20c5b561849dff
Подписка на обновления:

Торренты, похожие на XXII Зимние Олимпийские Игры 2014. Биатлон. Спринт 7,5 км. Женщины Первый Канал скачать торрент

Форум Название Автор Размер S L Добавлен
Зимние Олимпийские игры в Сочи 2014 ·· XXII Зимние Олимпийские Игры 2014. Биатлон. Спринт 7,5 км. Женщины / Первый Канал HD [09.02.2014 г., Биатлон, HDTV, 1080i] Galfimbul 78031795127.27 GB 0 0 1391964057

19:40

9-Фев-14

Еще никто не оставлял запись к записи скачать торрент XXII Зимние Олимпийские Игры 2014. Биатлон. Спринт 7,5 км. Женщины Первый Канал . Будь первым!

!Обратная связь