Скачать через торрент XXII Зимние Олимпийские Игры 2014 Лыжные гонки Фильм бесплатно в хорошем качестве torrent

Скачивайте на UnionPeer.org фильмы через торрент без регистрации. Новинки кино в хорошем качестве через торрент. На UnionPeer.org можно скачать через торрент фильмы 2014 и 2015 годов. Самые новые фильмы.

Скачать торрент XXII Зимние Олимпийские Игры 2014 Лыжные гонки бесплатно через .torrent фильм мультфильм сериал

Если у вас наблюдаются проблемы со скриншотами, переходом по ссылками, скачиванием торрентов - проблемы в блокировщике рекламы AdBlock. #хорошегоДня!


Статистика раздачи
Размер:  4.99 GB   |    Зарегистрирован:  3 года 8 месяцев   |    .torrent скачан:  34 раза   |   
Раздают:  1  
   
Загрузка...
 
Автор Сообщение

Galfimbul

avatar Galfimbul


XXII Зимние Олимпийские Игры 2014 / Лыжные гонки / Мужчины / Скиатлон 30 (15+15) км

Вид спорта: Лыжные гонки
Дата/Год выпуска: 09.02.14
Язык комментариев: немецкий

Автор записи: SashaR.

Качество: DVB-S2 Remux
Формат видео: TS
Видео: AVC, 1280x720, 16:9, 11.0 Mbps, 50 fps
Аудио: MP2, 160 kbps, 48 kHz, 2 channels
Аудио: MP2, 160 kbps, 48 kHz, 2 channels
Аудио: AC-3, 448 kbps, 48 kHz, 6 channels
J:\Олимпиада\Лыжные гонки.Скиатлон 30 км. ORF 1 HD.ts
General #1007
ID : 1007 (0x3EF)
Complete name : J:\Олимпиада\Лыжные гонки.Скиатлон 30 км. ORF 1 HD.ts
Format : MPEG-TS
File size : 4.99 GiB
Duration : 57mn 29s
Overall bit rate mode : Variable
Overall bit rate : 12.4 Mbps
Video #1920
ID : 1920 (0x780)
Menu ID : 4911 (0x132F)
Format : AVC
Format/Info : Advanced Video Codec
Format profile : High@L4.0
Format settings, CABAC : Yes
Format settings, ReFrames : 4 frames
Format settings, GOP : M=4, N=32
Codec ID : 27
Duration : 57mn 29s
Bit rate : 11.0 Mbps
Width : 1 280 pixels
Height : 720 pixels
Display aspect ratio : 16:9
Frame rate : 50.000 fps
Color space : YUV
Chroma subsampling : 4:2:0
Bit depth : 8 bits
Scan type : Progressive
Bits/(Pixel*Frame) : 0.239
Stream size : 4.43 GiB (89%)
Audio #1921
ID : 1921 (0x781)
Menu ID : 4911 (0x132F)
Format : MPEG Audio
Format version : Version 1
Format profile : Layer 2
Mode : Joint stereo
Codec ID : 4
Duration : 57mn 29s
Bit rate mode : Constant
Bit rate : 160 Kbps
Channel count : 2 channels
Sampling rate : 48.0 KHz
Compression mode : Lossy
Delay relative to video : 23ms
Stream size : 65.8 MiB (1%)
Language : German
Language, more info : Clean effects
Audio #1922
ID : 1922 (0x782)
Menu ID : 4911 (0x132F)
Format : MPEG Audio
Format version : Version 1
Format profile : Layer 2
Mode : Joint stereo
Codec ID : 4
Duration : 57mn 29s
Bit rate mode : Constant
Bit rate : 160 Kbps
Channel count : 2 channels
Sampling rate : 48.0 KHz
Compression mode : Lossy
Delay relative to video : 23ms
Stream size : 65.8 MiB (1%)
Language : English
Language, more info : Clean effects
Audio #1923
ID : 1923 (0x783)
Menu ID : 4911 (0x132F)
Format : AC-3
Format/Info : Audio Coding 3
Mode extension : CM (complete main)
Format settings, Endianness : Big
Codec ID : 6
Duration : 57mn 29s
Bit rate mode : Constant
Bit rate : 448 Kbps
Channel count : 6 channels
Channel positions : Front: L C R, Side: L R, LFE
Sampling rate : 48.0 KHz
Bit depth : 16 bits
Compression mode : Lossy
Delay relative to video : 111ms
Stream size : 184 MiB (4%)
Language : German
Language, more info : Clean effects
00:57:29


Трекер:  [ 10-Фев-2014 10:36 ]

  

Скачать .torrent

Размер .torrent файла 100 KB


Размер: 4.99 GB
Хэш (hash) релиза: 91414f886e9d56c0adf2820396457cff94eb51e3
Подписка на обновления:

Торренты, похожие на XXII Зимние Олимпийские Игры 2014 Лыжные гонки скачать торрент

Форум Название Автор Размер S L Добавлен
Спорт ·· XXII Зимние Олимпийские Игры 2014 / Лыжные гонки / Мужчины / Скиатлон 30 (15+15) км / HD Спорт [09.02.2014, Лыжные гонки, HDRip, XviD, RU] Galfimbul 18117102741.69 GB 0 0 1454417728

15:55

2-Фев-16

Зимние Олимпийские игры в Сочи 2014 ·· XXII Зимние Олимпийские игры 2014. Лыжные гонки. Скиатлон 30 км (15 + 15). Мужчины / Спорт 1 HD [09.02.2014, HDTV, 1080i, TS] Galfimbul 81900297447.63 GB 0 0 1391950288

15:51

9-Фев-14

Еще никто не оставлял запись к записи скачать торрент XXII Зимние Олимпийские Игры 2014 Лыжные гонки . Будь первым!

!Обратная связь