Скачать через торрент ХХII Зимние Олимпийские Игры 2014 Санный спорт Фильм бесплатно в хорошем качестве torrent

Скачивайте на UnionPeer.org фильмы через торрент без регистрации. Новинки кино в хорошем качестве через торрент. На UnionPeer.org можно скачать через торрент фильмы 2014 и 2015 годов. Самые новые фильмы.

Скачать торрент ХХII Зимние Олимпийские Игры 2014 Санный спорт бесплатно через .torrent фильм мультфильм сериал

Если у вас наблюдаются проблемы со скриншотами, переходом по ссылками, скачиванием торрентов - проблемы в блокировщике рекламы AdBlock. #хорошегоДня!


Статистика раздачи
Размер:  9.76 GB   |    Зарегистрирован:  3 года 8 месяцев   |    .torrent скачан:  33 раза   |   
Раздают:  1  
   
Загрузка...
 
Автор Сообщение

Galfimbul

avatar Galfimbul


ХХII Зимние Олимпийские Игры 2014 / Санный спорт / Мужчины / 2-я попытка / HD Спорт

Вид спорта: Санный спорт
Дата/Год выпуска: 08.02.14
Язык комментариев: русский

Автор записи: SashaR.

Качество: DVB-S2 Remux
Формат видео: TS
Видео: AVC, 1920x1080, 16:9, 15.2 Mbps, 25 fps
Аудио: MP2, 192 kbps, 48 kHz, 2 channels
J:\Олимпиада\Санный спорт. Мужчины. 2-я попытка (HD Спорт).ts
General #17
ID : 17 (0x11)
Complete name : J:\Олимпиада\Санный спорт. Мужчины. 2-я попытка (HD Спорт).ts
Format : MPEG-TS
File size : 9.76 GiB
Duration : 1h 26mn
Overall bit rate mode : Variable
Overall bit rate : 16.2 Mbps
Video #301
ID : 301 (0x12D)
Menu ID : 17101 (0x42CD)
Format : AVC
Format/Info : Advanced Video Codec
Format profile : High@L4.0
Format settings, CABAC : Yes
Format settings, ReFrames : 3 frames
Codec ID : 27
Duration : 1h 26mn
Bit rate : 15.2 Mbps
Width : 1 920 pixels
Height : 1 080 pixels
Display aspect ratio : 16:9
Frame rate : 25.000 fps
Standard : Component
Color space : YUV
Chroma subsampling : 4:2:0
Bit depth : 8 bits
Scan type : Interlaced
Scan order : Top Field First
Bits/(Pixel*Frame) : 0.293
Stream size : 9.16 GiB (94%)
Color primaries : BT.709
Transfer characteristics : BT.709
Matrix coefficients : BT.709
Audio #401
ID : 401 (0x191)
Menu ID : 17101 (0x42CD)
Format : MPEG Audio
Format version : Version 1
Format profile : Layer 2
Codec ID : 4
Duration : 1h 26mn
Bit rate mode : Constant
Bit rate : 192 Kbps
Channel count : 2 channels
Sampling rate : 48.0 KHz
Compression mode : Lossy
Delay relative to video : 69ms
Stream size : 118 MiB (1%)
Language : Russian
Language, more info : Clean effects
01:26:16


Трекер:  [ 10-Фев-2014 01:07 ]

  

Скачать .torrent

Размер .torrent файла 98 KB


Размер: 9.76 GB
Хэш (hash) релиза: 25fc4034f1961e5a548c1d95b280219227a4b3de
Подписка на обновления:

Торренты, похожие на ХХII Зимние Олимпийские Игры 2014 Санный спорт скачать торрент

Форум Название Автор Размер S L Добавлен
Зимние Олимпийские игры в Сочи 2014 ·· ХХII Зимние Олимпийские Игры 2014 / Санный спорт / Мужчины / 1-я и 2-я попытка / ORF 1 HD [08.02.14, Санный спорт, DVB-S2 Remux, 720p, DE] Galfimbul 45959976484.28 GB 0 0 1391908327

04:12

9-Фев-14

Еще никто не оставлял запись к записи скачать торрент ХХII Зимние Олимпийские Игры 2014 Санный спорт . Будь первым!

!Обратная связь