Скачать через торрент XXII Зимние Олимпийские Игры 2014. Конькобежный спорт. Женщины. 3000 м Первый Канал HD Фильм бесплатно в хорошем качестве torrent

Скачивайте на UnionPeer.org фильмы через торрент без регистрации. Новинки кино в хорошем качестве через торрент. На UnionPeer.org можно скачать через торрент фильмы 2014 и 2015 годов. Самые новые фильмы.

Скачать торрент XXII Зимние Олимпийские Игры 2014. Конькобежный спорт. Женщины. 3000 м Первый Канал HD бесплатно через .torrent фильм мультфильм сериал

Если у вас наблюдаются проблемы со скриншотами, переходом по ссылками, скачиванием торрентов - проблемы в блокировщике рекламы AdBlock. #хорошегоДня!


Статистика раздачи
Размер:  9.7 GB   |    Зарегистрирован:  3 года 8 месяцев   |    .torrent скачан:  35 раз   |   
Раздают:  1  
   
Загрузка...
 
Автор Сообщение

Galfimbul

avatar Galfimbul


XXII Зимние Олимпийские Игры 2014. Конькобежный спорт. Женщины. 3000 м

Вид спорта: Конькобежный спорт
Комментарий: Профессиональный
Язык комментариев: Русский (Голованов)
Описание: XXII Зимние Олимпийские Игры 2014. Конькобежный спорт. Женщины. 3000 м. Присутствует цветочная церемония.

Автор рипа: sanchez2011

Качество: HDTV
Формат: MPEG-TS
Видео кодек: AVC
Аудио кодек: MP2
Видео: MPEG4 Video (H264) 1920x1080 13.0Mbps 25fps
Аудио: MPEG Audio 48000Hz stereo 192kbps
УРАААА! Первая медаль сборной России на Олимпиаде в Сочи!!

Все результаты соревнований

Продолжительность: 01:40:20
GeneralID : 1 (0x1)Complete name : E:\Олимпиада 2014\XXII Зимние Олимпийские Игры 2014. 09.02.2014 Конькобежный спорт. Женщины. 3000 м.tsFormat : MPEG-TSFile size : 9.70 GiBDuration : 1h 40mnOverall bit rate mode : VariableOverall bit rate : 13.8 Mbps

VideoID : 2141 (0x85D)Menu ID : 1 (0x1)Format : AVCFormat/Info : Advanced Video CodecFormat profile : Main@L4.0Format settings, CABAC : YesFormat settings, ReFrames : 3 framesCodec ID : 27Duration : 1h 40mnBit rate : 13.0 MbpsWidth : 1 920 pixelsHeight : 1 080 pixelsDisplay aspect ratio : 16:9Frame rate : 25.000 fpsStandard : ComponentColor space : YUVChroma subsampling : 4:2:0Bit depth : 8 bitsScan type : InterlacedScan order : Top Field FirstBits/(Pixel*Frame) : 0.250Stream size : 9.09 GiB (94%)Color primaries : BT.709Transfer characteristics : BT.709Matrix coefficients : BT.709

AudioID : 2142 (0x85E)Menu ID : 1 (0x1)Format : MPEG AudioFormat version : Version 1Format profile : Layer 2Codec ID : 3Duration : 1h 40mnBit rate mode : ConstantBit rate : 192 KbpsChannel(s) : 2 channelsSampling rate : 48.0 KHzCompression mode : LossyStream size : 138 MiB (1%)Language : Russian


Трекер:  [ 09-Фев-2014 16:56 ]

  

Скачать .torrent

Размер .torrent файла 49 KB


Размер: 9.7 GB
Хэш (hash) релиза: 12efbf666c5b8ab8cb6559560a1c1650e499cc2b
Подписка на обновления:

Еще никто не оставлял запись к записи скачать торрент XXII Зимние Олимпийские Игры 2014. Конькобежный спорт. Женщины. 3000 м Первый Канал HD . Будь первым!

!Обратная связь