Скачать через торрент XXII Зимние Олимпийские игры 2014. Горные лыжи. Скоростной спуск. Мужчины. ZDF HD Фильм бесплатно в хорошем качестве torrent

Скачивайте на UnionPeer.org фильмы через торрент без регистрации. Новинки кино в хорошем качестве через торрент. На UnionPeer.org можно скачать через торрент фильмы 2014 и 2015 годов. Самые новые фильмы.

Скачать торрент XXII Зимние Олимпийские игры 2014. Горные лыжи. Скоростной спуск. Мужчины. ZDF HD бесплатно через .torrent фильм мультфильм сериал

Если у вас наблюдаются проблемы со скриншотами, переходом по ссылками, скачиванием торрентов - проблемы в блокировщике рекламы AdBlock. #хорошегоДня!


Статистика раздачи
Размер:  8.6 GB   |    Зарегистрирован:  3 года 8 месяцев   |    .torrent скачан:  36 раз   |   
Раздают:  1  
   
Загрузка...
 
Автор Сообщение

Galfimbul

avatar Galfimbul


XXII Зимние Олимпийские игры 2014. Горные лыжи. Скоростной спуск. Мужчины. ZDF HD

Вид спорта: Горные лыжи
Дата/Год выпуска: 09.02.14
Язык комментариев: немецкий

Автор записи: SashaR.

Качество: DVB-S2 Remux
Формат видео: TS
Видео: AVC, 1280x720, 16:9, 12.2 Mbps, 50 fps
Аудио: MP2, 256 kbps, 48 kHz, 2 channels
Аудио: MP2, 192 kbps, 48 kHz, 2 channels
Аудио: MP2, 192 kbps, 48 kHz, 2 channels
Аудио: AC-3, 448 kbps, 48 kHz, 6 channels
J:\Олимпиада\Горные лыжи. Скоростной спуск. Мужчины. ZDF HD.ts
General #6
ID : 6 (0x6)
Complete name : J:\Олимпиада\Горные лыжи. Скоростной спуск. Мужчины. ZDF HD.ts
Format : MPEG-TS
File size : 8.60 GiB
Duration : 1h 28mn
Overall bit rate mode : Variable
Overall bit rate : 13.9 Mbps
Video #6110
ID : 6110 (0x17DE)
Menu ID : 11110 (0x2B66)
Format : AVC
Format/Info : Advanced Video Codec
Format profile : High@L4.0
Format settings, CABAC : Yes
Format settings, ReFrames : 6 frames
Format settings, GOP : M=4, N=33
Codec ID : 27
Duration : 1h 28mn
Bit rate : 12.2 Mbps
Width : 1 280 pixels
Height : 720 pixels
Display aspect ratio : 16:9
Frame rate : 50.000 fps
Color space : YUV
Chroma subsampling : 4:2:0
Bit depth : 8 bits
Scan type : Progressive
Bits/(Pixel*Frame) : 0.264
Stream size : 7.50 GiB (87%)
Color primaries : BT.709
Transfer characteristics : BT.709
Matrix coefficients : BT.709
Audio #6120
ID : 6120 (0x17E8)
Menu ID : 11110 (0x2B66)
Format : MPEG Audio
Format version : Version 1
Format profile : Layer 2
Codec ID : 3
Duration : 1h 28mn
Bit rate mode : Constant
Bit rate : 256 Kbps
Channel count : 2 channels
Sampling rate : 48.0 KHz
Compression mode : Lossy
Delay relative to video : -51ms
Stream size : 162 MiB (2%)
Language : German
Audio #6121
ID : 6121 (0x17E9)
Menu ID : 11110 (0x2B66)
Format : MPEG Audio
Format version : Version 1
Format profile : Layer 2
Codec ID : 3
Duration : 1h 28mn
Bit rate mode : Constant
Bit rate : 192 Kbps
Channel count : 2 channels
Sampling rate : 48.0 KHz
Compression mode : Lossy
Delay relative to video : -51ms
Stream size : 121 MiB (1%)
Audio #6122
ID : 6122 (0x17EA)
Menu ID : 11110 (0x2B66)
Format : AC-3
Format/Info : Audio Coding 3
Mode extension : CM (complete main)
Format settings, Endianness : Big
Codec ID : 6
Duration : 1h 28mn
Bit rate mode : Constant
Bit rate : 448 Kbps
Channel count : 2 channels
Channel positions : Front: L R
Sampling rate : 48.0 KHz
Bit depth : 16 bits
Compression mode : Lossy
Delay relative to video : -13ms
Stream size : 283 MiB (3%)
Language : German
Audio #6123
ID : 6123 (0x17EB)
Menu ID : 11110 (0x2B66)
Format : MPEG Audio
Format version : Version 1
Format profile : Layer 2
Codec ID : 3
Duration : 1h 28mn
Bit rate mode : Constant
Bit rate : 192 Kbps
Channel count : 2 channels
Sampling rate : 48.0 KHz
Compression mode : Lossy
Delay relative to video : 10ms
Stream size : 121 MiB (1%)
Language : Multiple languages
Text #6131
ID : 6131 (0x17F3)
Menu ID : 11110 (0x2B66)
Format : DVB Subtitle
Codec ID : 6
Duration : 1h 28mn
Delay relative to video : 180ms
Language : German
01:28:16


Трекер:  [ 09-Фев-2014 15:51 ]

  

Скачать .torrent

Размер .torrent файла 86 KB


Размер: 8.6 GB
Хэш (hash) релиза: 81b8c69785e3d8ea705d8cb94b37ded79218a94e
Подписка на обновления:

Еще никто не оставлял запись к записи скачать торрент XXII Зимние Олимпийские игры 2014. Горные лыжи. Скоростной спуск. Мужчины. ZDF HD . Будь первым!

!Обратная связь