Скачать через торрент XXII Зимние Олимпийские Игры 2014. Сноуборд. Слоупстайл. Женщины. Финал Первый Канал HD Фильм бесплатно в хорошем качестве torrent

Скачивайте на UnionPeer.org фильмы через торрент без регистрации. Новинки кино в хорошем качестве через торрент. На UnionPeer.org можно скачать через торрент фильмы 2014 и 2015 годов. Самые новые фильмы.

Скачать торрент XXII Зимние Олимпийские Игры 2014. Сноуборд. Слоупстайл. Женщины. Финал Первый Канал HD бесплатно через .torrent фильм мультфильм сериал

Если у вас наблюдаются проблемы со скриншотами, переходом по ссылками, скачиванием торрентов - проблемы в блокировщике рекламы AdBlock. #хорошегоДня!


Статистика раздачи
Размер:  5.92 GB   |    Зарегистрирован:  3 года 8 месяцев   |    .torrent скачан:  34 раза   |   
Раздают:  1  
   
Загрузка...
 
Автор Сообщение

Galfimbul

avatar Galfimbul


XXII Зимние Олимпийские Игры 2014. Сноуборд. Слоупстайл. Женщины. Финал

Вид спорта: Сноуборд
Комментарий: Профессиональный
Язык комментариев: Русский (Мария Румянцева и Антон Кучеров)
Описание: XXII Зимние Олимпийские Игры 2014. Сноуборд. Слоупстайл. Женщины. Финал
Доп. информация: К сожалению, присутствуют подсыпания ближе к середине файла и еще одна группа подсыпаний минут за 10 до конца. Так же обратите внимание, что первый канал показал соревнования и в первой попытке и во второй - не сначала, т.е. попали в запись не все участники.

Автор рипа: sanchez2011

Качество: HDTV
Формат: MPEG-TS
Видео кодек: AVC
Аудио кодек: MP2
Видео: MPEG4 Video (H264) 1920x1080 12.8Mbps 25fps
Аудио: MPEG Audio 48000Hz stereo 192kbps
Все результаты соревнований

Продолжительность: 01:02:08
GeneralID : 1 (0x1)Complete name : E:\Олимпиада 2014\XXII Зимние Олимпийские Игры 2014. 09.02.2014 Сноуборд. Слоупстайл. Женщины. Финал.tsFormat : MPEG-TSFile size : 5.92 GiBDuration : 1h 2mnOverall bit rate mode : VariableOverall bit rate : 13.6 Mbps

VideoID : 2141 (0x85D)Menu ID : 1 (0x1)Format : AVCFormat/Info : Advanced Video CodecFormat profile : Main@L4.0Format settings, CABAC : YesFormat settings, ReFrames : 3 framesFormat settings, GOP : M=4, N=28Codec ID : 27Duration : 1h 2mnBit rate : 12.8 MbpsWidth : 1 920 pixelsHeight : 1 080 pixelsDisplay aspect ratio : 16:9Frame rate : 25.000 fpsStandard : ComponentColor space : YUVChroma subsampling : 4:2:0Bit depth : 8 bitsScan type : InterlacedScan order : Top Field FirstBits/(Pixel*Frame) : 0.246Stream size : 5.55 GiB (94%)Color primaries : BT.709Transfer characteristics : BT.709Matrix coefficients : BT.709

AudioID : 2142 (0x85E)Menu ID : 1 (0x1)Format : MPEG AudioFormat version : Version 1Format profile : Layer 2Codec ID : 3Duration : 1h 2mnBit rate mode : ConstantBit rate : 192 KbpsChannel(s) : 2 channelsSampling rate : 48.0 KHzCompression mode : LossyStream size : 85.3 MiB (1%)Language : Russian


Трекер:  [ 09-Фев-2014 15:51 ]

  

Скачать .torrent

Размер .torrent файла 30 KB


Размер: 5.92 GB
Хэш (hash) релиза: 8ab5636816b15def8ccbd017b87aae9739206a51
Подписка на обновления:

Еще никто не оставлял запись к записи скачать торрент XXII Зимние Олимпийские Игры 2014. Сноуборд. Слоупстайл. Женщины. Финал Первый Канал HD . Будь первым!

!Обратная связь